Правила форума

  • В этом разделе создание новых тем Запрещено.
  • Для создания новых тем пользуйтесь Корневым разделом DVD и HD фильмы.
Начать новую темуОтветить на тему  [ 1 сообщение ] 
Торрент файл
Размер: 29.54 GB • Зарегистрирован: 3 года 10 месяцев • Статус: Проверено
Скачан: 23 раза • Желающих скачать: 0 • Поблагодарили: 8 раз
 Раздают: 0  |  0 KB/s  ]   Качают: 0  |  0 KB/s  ] 
 Полного источника не было 6 месяцев 
Сообщения
 Добавлено: 2013-02-08 09:11
Top-releaser
Аватара пользователя
Стаж: 6 лет 7 месяцев
Сообщений: 2078
Спасибок: 3230
Лайков: 9
Изображение

На крючке
Eagle Eye


Год выпуска: 2008
Страна: США, Германия
Слоган: «Хочешь жить - делай что говорят»
Жанр: фантастика, боевик, триллер, детектив
Продолжительность: 01:57:36
Перевод: Профессиональный (полное дублирование)
Режиссер: Ди Джей Карузо
Сценарий: Дэн МакДермотт, Джон Гленн, Трэвис Райт, Хиллари Сайц
Продюсер: Патрик Краули, Алекс Куртцман, Роберто Орси, Пит Чиарелли, Джеймс М. Фрейтаг
Оператор: Дариуш Вольски
Композитор: Брайан Тайлер
В ролях: Шайа ЛаБаф, Мишель Монахэн, Билли Боб Торнтон, Розарио Доусон, Майкл Чиклис, Энтони Маки, Итэн Эмбри, Энтони Азизи, Камерон Бойс, Линн Коэн, Билл Смитрович, Чарльз Кэррол
Бюджет: $80 000 000
Сборы в США: $101 440 743
Сборы в России: $4 649 700
Сборы в мире: $178 066 569
Мировая премьера: 16 сентября 2008
Релиз на DVD: 3 февраля 2009, «Юниверсал Пикчерс Рус»
Релиз на Blu-ray: 12 мая 2009, «Юниверсал Пикчерс Рус»
Описание: Юный бездельник живет беззаботной жизнью, в отличие от своего брата-близнеца, стремящегося добиться успеха во всех сферах жизни, пока... тот не погибает при загадочных обстоятельствах. В то же время у матери-одиночки Рэйчел пропадает ребенок, и, вскоре, незнакомцы обнаруживают, что их подставили и выставили террористами. Насильно внедренные в группировку, планирующую серию убийств, они вынуждены вместе искать пути к спасению своей жизни...
Раздача группы:
Изображение

Изображение User Rating: 7.537 (32 012)
Изображение User Rating: 6.60 (103 595)
MPAA: PG-13 - Детям до 13 лет просмотр не желателен
Качество: BD-Remux, 1080p
Формат: MKV
Видео: AVC; 1920x1080 (16:9); 23,976 fps
Аудио №1: русский; AC3; 640 Kbps; CBR; 6 ch |Дубляж, CEE|
Аудио №2: русский; AC3; 448 Kbps; CBR; 6 ch |Многоголосый закадровый, Киномания|
Аудио №3: русский; DTS; 755 Kbps; CBR; 6 ch; 24 bit |Одноголосый закадровый, А.Гаврилов|
Аудио №4: русский; AC3; 448 Kbps; CBR; 6 ch |Одноголосый закадровый, Ю.Сербин|
Аудио №5: украинский; AC3; 448 Kbps; CBR; 6 ch |Дубляж|
Аудио №6: английский; A_TRUEHD; 6 ch
Субтитры: Русские, украинские, нглийские
mediainfo
Общее
Уникальный идентификатор : 200142385462915892291981144188290329231 (0x96920575E8EEF2FC916359B33FA7EA8F)
Полное имя : Z:\WWW\TR-Downloads\Eagle.Eye.2008.BDRemux.mkv
Формат : Matroska
Версия формата : Version 2
Размер файла : 29,5 Гбайт
Продолжительность : 1 ч. 57 м.
Режим общего битрейта : Переменный
Общий поток : 36,0 Мбит/сек
Название фильма : На крючке
Дата кодирования : UTC 2011-01-13 07:29:59
Программа кодирования : mkvmerge v2.9.7 ('Tenderness') built on Jul 1 2009 18:43:35
Библиотека кодирования : libebml v0.7.7 + libmatroska v0.8.1

Видео
Идентификатор : 1
Формат : AVC
Формат/Информация : Advanced Video Codec
Профиль формата : High@L4.1
Параметр CABAC формата : Да
Параметр ReFrames формата : 4 кадра
Идентификатор кодека : V_MPEG4/ISO/AVC
Продолжительность : 1 ч. 57 м.
Вид битрейта : Переменный
Максимальный битрейт : 35,0 Мбит/сек
Ширина : 1920 пикселей
Высота : 1080 пикселей
Соотношение сторон : 16:9
Частота кадров : 23,976 кадра/сек
Цветовое пространство : YUV
Субдискретизация насыщенности : 4:2:0
Битовая глубина : 8 бит
Тип развёртки : Прогрессивная
Заголовок : На крючке
Язык : English
Default : Да
Forced : Нет
Основные цвета : BT.709-5, BT.1361, IEC 61966-2-4, SMPTE RP177
Характеристики трансфера : BT.709-5, BT.1361
Коэффициенты матрицы : BT.709-5, BT.1361, IEC 61966-2-4 709, SMPTE RP177

Аудио #1
Идентификатор : 2
Формат : AC-3
Формат/Информация : Audio Coding 3
Расширение режима : CM (complete main)
Параметр Endianness формата : Big
Идентификатор кодека : A_AC3
Продолжительность : 1 ч. 57 м.
Вид битрейта : Постоянный
Битрейт : 640 Кбит/сек
Каналы : 6 каналов
Расположение каналов : Front: L C R, Side: L R, LFE
Частота : 48,0 КГц
Битовая глубина : 16 бит
Метод сжатия : С потерями
Размер потока : 538 Мбайт (2%)
Заголовок : AC3 - Дубляж
Язык : Russian
Default : Да
Forced : Нет

Аудио #2
Идентификатор : 3
Формат : AC-3
Формат/Информация : Audio Coding 3
Расширение режима : CM (complete main)
Параметр Endianness формата : Big
Идентификатор кодека : A_AC3
Продолжительность : 1 ч. 57 м.
Вид битрейта : Постоянный
Битрейт : 448 Кбит/сек
Каналы : 6 каналов
Расположение каналов : Front: L C R, Side: L R, LFE
Частота : 48,0 КГц
Битовая глубина : 16 бит
Метод сжатия : С потерями
Размер потока : 377 Мбайт (1%)
Заголовок : AC3 - MVO ( Киномания)
Язык : Russian
Default : Нет
Forced : Нет

Аудио #3
Идентификатор : 4
Формат : DTS
Формат/Информация : Digital Theater Systems
Идентификатор кодека : A_DTS
Продолжительность : 1 ч. 57 м.
Вид битрейта : Постоянный
Битрейт : 755 Кбит/сек
Каналы : 6 каналов
Расположение каналов : Front: L C R, Side: L R, LFE
Частота : 48,0 КГц
Битовая глубина : 24 бит
Метод сжатия : С потерями
Размер потока : 635 Мбайт (2%)
Заголовок : DTS - AVO (Гаврилов)
Язык : Russian
Default : Нет
Forced : Нет

Аудио #4
Идентификатор : 5
Формат : AC-3
Формат/Информация : Audio Coding 3
Расширение режима : CM (complete main)
Параметр Endianness формата : Big
Идентификатор кодека : A_AC3
Продолжительность : 1 ч. 57 м.
Вид битрейта : Постоянный
Битрейт : 448 Кбит/сек
Каналы : 6 каналов
Расположение каналов : Front: L C R, Side: L R, LFE
Частота : 48,0 КГц
Битовая глубина : 16 бит
Метод сжатия : С потерями
Размер потока : 377 Мбайт (1%)
Заголовок : AC3 - AVO (Сербин)
Язык : Russian
Default : Нет
Forced : Нет

Аудио #5
Идентификатор : 6
Формат : AC-3
Формат/Информация : Audio Coding 3
Расширение режима : CM (complete main)
Параметр Endianness формата : Big
Идентификатор кодека : A_AC3
Продолжительность : 1 ч. 57 м.
Вид битрейта : Постоянный
Битрейт : 448 Кбит/сек
Каналы : 6 каналов
Расположение каналов : Front: L C R, Side: L R, LFE
Частота : 48,0 КГц
Битовая глубина : 16 бит
Метод сжатия : С потерями
Размер потока : 377 Мбайт (1%)
Заголовок : AC3 - Дубляж
Язык : Ukrainian
Default : Нет
Forced : Нет

Аудио #6
Идентификатор : 7
Формат : TrueHD
Идентификатор кодека : A_TRUEHD
Продолжительность : 1 ч. 57 м.
Вид битрейта : Переменный
Максимальный битрейт : 5148 Кбит/сек
Каналы : 6 каналов
Расположение каналов : Front: L C R, Side: L R, LFE
Частота : 48,0 КГц
Метод сжатия : Без потерь
Заголовок : TueHD
Язык : English
Default : Нет
Forced : Нет

Текст #1
Идентификатор : 8
Формат : UTF-8
Идентификатор кодека : S_TEXT/UTF8
Идентификатор кодека/Информация : UTF-8 Plain Text
Заголовок : Forsed
Язык : Russian
Default : Да
Forced : Нет

Текст #2
Идентификатор : 9
Формат : UTF-8
Идентификатор кодека : S_TEXT/UTF8
Идентификатор кодека/Информация : UTF-8 Plain Text
Язык : Russian
Default : Нет
Forced : Нет

Текст #3
Идентификатор : 10
Формат : UTF-8
Идентификатор кодека : S_TEXT/UTF8
Идентификатор кодека/Информация : UTF-8 Plain Text
Язык : Ukrainian
Default : Нет
Forced : Нет

Текст #4
Идентификатор : 11
Формат : UTF-8
Идентификатор кодека : S_TEXT/UTF8
Идентификатор кодека/Информация : UTF-8 Plain Text
Язык : English
Default : Нет
Forced : Нет
Свернуть
"Знаете ли Вы, что..."
  • «Орлиный глаз» (оригинальное американское название) поставлен по рассказу Стивена Спилберга, который и должен был снимать ленту. Но режиссер отвлекся на четвертого «Индиану Джонса» и передал штурвал Карузо, оставшись лишь исполнительным продюсером.
  • В фильме можно заметить DVD-диск с фильмом «Паранойя», предыдущей работой D.J. Карузо и Шайи ЛаБафа.
  • Съемки начались 6 ноября 2007 года и были завершены в феврале 2008 года.
  • Когда появляется список фильмов, которые Джерри Шоу то ли покупал, то ли брал чаще всего можно заметить такие фильмы, как «Вечное сияние чистого разума», «Бойцовский клуб», «Город Бога» и 2 фильма Стэнли Кубрика: «Цельнометаллическая оболочка» и «Космическая одиссея 2001».
  • В отделе бытовой техники, куда заходят Рэйчел и Джерри, на всех экранах проигрывается фильм «Монстро», вышедший весной того же года.
Свернуть
Скриншоты

Изображение
Изображение
Изображение
Изображение
Изображение
Свернуть
Не в сети
Профиль  
Начать новую темуОтветить на тему  [ 1 сообщение ] 
Вы не можете начинать темы
Вы не можете отвечать на сообщения
Вы не можете редактировать свои сообщения
Вы не можете удалять свои сообщения