Правила форума

  • В этом разделе создание новых тем Запрещено.
  • Для создания новых тем пользуйтесь Корневым разделом DVD и HD фильмы.
Начать новую темуОтветить на тему  [ Сообщений: 3 ] 
Торрент файл
Размер: 19.82 GB • Зарегистрирован: 4 года 4 месяца • Статус: Проверено
Скачан: 90 раз • Желающих скачать: 0 • Поблагодарили: 25 раз
 Раздают: 0  |  0 KB/s  ]   Качают: 0  |  0 KB/s  ] 
 Полного источника не было 8 дней 
Сообщения
 Добавлено: 2012-07-13 21:17
Модератор
Аватара пользователя
Стаж: 6 лет 10 месяцев
Возраст: 33
Сообщений: 5908
Спасибок: 61241
Лайков: 3540
Изображение

Напролом / Lockout


Год выпуска: 2012
Страна: Франция
Слоган: «В одиночку против 500. В чем проблема?»
Жанр: фантастика, боевик, триллер
Продолжительность: 01:35:19
Перевод: Профессиональный (полное дублирование) Лицензия
Режиссер: Джеймс Мэтер, Стивен Ст. Леджер
Сценарий: Стивен Ст. Леджер, Джеймс Мэтер, Люк Бессон
Продюсер: Марк Либерт, Лейла Смит, Люк Бессон
Оператор: Джеймс Мэтер
Композитор: Александр Азария
В ролях: Гай Пирс, Мэгги Грэйс, Винсент Риган, Джозеф Гилган, Катрин Чан, Роберт Джон Бёрк, Джеймс Хонг, Энсон Маунт, Крис Сарандон, Сандор Текси, Джозеф , Сикора, Игорь Жижикин, Регги Ли
Бюджет: $20 000 000
Сборы в США: $14 326 864
Сборы в России: $2 989 548
Сборы в мире: $25 652 960
Описание: Орбитальная станция MS1 - крупнейшая космическая тюрьма, где в анабиозе содержатся тысячи опасных преступников. Ходят слухи, что над погруженными в искусственный сон узниками проводятся противозаконные эксперименты. С расследованием на станцию отправлена комиссия во главе с Эмили Уорнок, дочерью президента США.
Неожиданно ситуация выходит из-под контроля, и вся станция оказывается захвачена уголовниками. Спецагент Сноу, несправедливо обвиненный в государственной измене, получает задание проникнуть в самую неприступную тюрьму во Вселенной и спасти Эмили. Это его единственный шанс вернуть себе доброе имя и получить свободу.

Изображение
MPAA: Изображение
Мировая премьера: 7 апреля 2012
Релиз на DVD: 17 июля 2012, «Вольга»
Релиз на Blu-ray: 17 июля 2012, «Вольга»
Релиз группы: Изображение
Раздача группы: Изображение
Качество: BD-Remux, 1080p
Формат: Matroska
Видео: AVC; 1920x1080 (16:9); 26.9 Mb/s; 23,976 fps
Аудио №1: Russian; DTS; 754 Kbps; CBR; 6 ch; 24 bit
Аудио №2: DTS-HD; VBR; 6 ch; 24 bit
Оригинал
Субтитры №1: Russian
Субтитры №2:


"Знаете ли Вы, что..."
  • Главные отрицательные герои – братья Алекс и Хайделл. Алек Хиделл – псевдоним, который использовал Ли Харви Освальд.
  • В одной из сцен Сноу отмечает: «Вопреки распространённому мнению, на самом деле я не Гудини». Гай Пирс играл Гарри Гудини в фильме «Смертельный номер» (2007).
  • «Крик Вильгельма» звучит в фильме в сцене, где заключенный спотыкается и падает сразу после выхода из стазиса.
  • Когда стазисные камеры первый раз открываются, можно видеть как одна из них открывается дважды.
  • Когда сценарий был завершен, режиссеры убедили Бессона, что им необходимо полностью «пре-визуализировать» будущий фильм с помощью раскадровки и анимированных моделей героев и декораций.
  • Пре-визуализация оказалась чрезвычайно полезна для глав технических департаментов, сумевших благодаря ей получить более четкое представление об особенностях экшн-сцен, а также каскадеров, которые уяснили себе, чего хотят добиться постановщики. А учитывая, что все технические специалисты были разного происхождения – из Бразилии, Ирландии, Франции, Сербии, - пре-визуализация успешно помогла им преодолеть языковой барьер.
  • Главным инициатором создания картины выступила французская компания (она же продюсировала ленту), съемки фильма проходили в Сербии, основные роли исполнили англоговорящие актеры, и при этом на проект распространялись ирландские налоговые льготы.
  • Часть объектов и декораций сочетала элементы технических конструкций и зеленого экрана – таковы, например, космический полицейский департамент в форме листка клевера, фоном которому служили Земля и космические глубины, или шоссе, где разворачивается погоня на мотоциклах.
  • Эпизод в Овальном кабинете был снят на пивоваренном заводе Amstel, расположенном в пригороде сербской столицы.
  • В то время как монтаж и цветокоррекция картины проходили во Франции, визуальными эффектами занималась ирландская студия Windmillane.
Свернуть
MediaInfo
General
Unique ID : 171079329754832854391872830445352859239 (0x80B4AE2EF5C40DED94C57AA487E33667)
Complete name : D:\BD\Naprolom.2012.D.BD-Remux.[uniongang.tv].mkv
Format : Matroska
Format version : Version 2
File size : 19.8 GiB
Duration : 1h 35mn
Overall bit rate mode : Variable
Overall bit rate : 29.8 Mbps
Encoded date : UTC 2012-07-13 10:36:26
Writing application : mkvmerge v5.7.0 ('The Whirlwind') built on Jul 8 2012 20:08:51
Writing library : libebml v1.2.3 + libmatroska v1.3.0
Video #1
ID : 1
Format : AVC
Format/Info : Advanced Video Codec
Format profile : High@L4.1
Format settings, CABAC : Yes
Format settings, ReFrames : 2 frames
Codec ID : V_MPEG4/ISO/AVC
Duration : 1h 35mn
Bit rate mode : Variable
Bit rate : 26.9 Mbps
Width : 1 920 pixels
Height : 1 080 pixels
Display aspect ratio : 16:9
Frame rate : 23.976 fps
Color space : YUV
Chroma subsampling : 4:2:0
Bit depth : 8 bits
Scan type : Progressive
Bits/(Pixel*Frame) : 0.540
Stream size : 17.9 GiB (90%)
Default : Yes
Forced : No
Audio #2
ID : 2
Format : DTS
Format/Info : Digital Theater Systems
Codec ID : A_DTS
Duration : 1h 35mn
Bit rate mode : Constant
Bit rate : 755 Kbps
Channel(s) : 6 channels
Channel positions : Front: L C R, Side: L R, LFE
Sampling rate : 48.0 KHz
Bit depth : 24 bits
Compression mode : Lossy
Stream size : 514 MiB (3%)
Title : DTS 5.1 @ 768 kbps - Dub, R5
Language : Russian
Default : Yes
Forced : Yes
Audio #3
ID : 3
Format : DTS
Format/Info : Digital Theater Systems
Format profile : MA / Core
Codec ID : A_DTS
Duration : 1h 35mn
Bit rate mode : Variable
Bit rate : 1 561 Kbps / 1 510 Kbps
Channel(s) : 6 channels
Channel positions : Front: L C R, Side: L R, LFE
Sampling rate : 48.0 KHz
Bit depth : 24 bits
Compression mode : Lossless / Lossy
Default : No
Forced : No
Text #4
ID : 4
Format : UTF-8
Codec ID : S_TEXT/UTF8
Codec ID/Info : UTF-8 Plain Text
Title : Voronine
Language : Russian
Default : No
Forced : No
Text #5
ID : 5
Format : PGS
Muxing mode : zlib
Codec ID : S_HDMV/PGS
Codec ID/Info : The same subtitle format used on BDs/HD-DVDs
Default : Yes
Forced : No
Свернуть

Скриншоты

Изображение
Изображение
Изображение
Изображение
Свернуть
_________________
ИзображениеИзображение Изображение
Изображение
 tany1984 и di-ys1 нравится это.
Не в сети
Профиль  
 Добавлено: 2012-07-13 22:08 (спустя 50 минут)
Аватара пользователя
Стаж: 9 лет
Сообщений: 167
Спасибок: 38
дайте золото релизу чтоб скачать
Не в сети
Профиль  
 Добавлено: 2012-07-14 11:12 (спустя 13 часов)
Стаж: 7 лет 4 месяца
Сообщений: 6
а PS3 поддерживает этот формат?!
_________________
[url=http://eu.playstation.com/psn/profile/XZNitro/] [img]http://mypsn.eu.playstation.com/psn/profile/XZNitro.png[/img] [/url]
Не в сети
Профиль  
Начать новую темуОтветить на тему  [ Сообщений: 3 ] 
Вы не можете начинать темы
Вы не можете отвечать на сообщения
Вы не можете редактировать свои сообщения
Вы не можете удалять свои сообщения