Правила форума

  • В этом разделе создание новых тем Запрещено.
  • Для создания новых тем пользуйтесь Корневым разделом DVD и HD фильмы.
Начать новую темуОтветить на тему  [ Сообщений: 9 ] 
Торрент файл
Размер: 10.33 GB • Зарегистрирован: 4 года 4 месяца • Статус: Проверено
Скачан: 658 раз • Желающих скачать: 0 • Поблагодарили: 119 раз
 Раздают: 0  |  0 KB/s  ]   Качают: 0  |  0 KB/s  ] 
 Полного источника не было 3 часа 
Сообщения
 Добавлено: 2012-07-13 22:54
Модератор
Аватара пользователя
Стаж: 6 лет 10 месяцев
Возраст: 33
Сообщений: 5908
Спасибок: 61259
Лайков: 3540
Изображение

Напролом / Lockout


Год выпуска: 2012
Страна: Франция
Слоган: «В одиночку против 500. В чем проблема?»
Жанр: фантастика, боевик, триллер
Продолжительность: 01:35:19
Перевод: Профессиональный (полное дублирование) Лицензия
Режиссер: Джеймс Мэтер, Стивен Ст. Леджер
Сценарий: Стивен Ст. Леджер, Джеймс Мэтер, Люк Бессон
Продюсер: Марк Либерт, Лейла Смит, Люк Бессон
Оператор: Джеймс Мэтер
Композитор: Александр Азария
В ролях: Гай Пирс, Мэгги Грэйс, Винсент Риган, Джозеф Гилган, Катрин Чан, Роберт Джон Бёрк, Джеймс Хонг, Энсон Маунт, Крис Сарандон, Сандор Текси, Джозеф , Сикора, Игорь Жижикин, Регги Ли
Бюджет: $20 000 000
Сборы в США: $14 326 864
Сборы в России: $2 989 548
Сборы в мире: $25 652 960
Описание: Орбитальная станция MS1 - крупнейшая космическая тюрьма, где в анабиозе содержатся тысячи опасных преступников. Ходят слухи, что над погруженными в искусственный сон узниками проводятся противозаконные эксперименты. С расследованием на станцию отправлена комиссия во главе с Эмили Уорнок, дочерью президента США.
Неожиданно ситуация выходит из-под контроля, и вся станция оказывается захвачена уголовниками. Спецагент Сноу, несправедливо обвиненный в государственной измене, получает задание проникнуть в самую неприступную тюрьму во Вселенной и спасти Эмили. Это его единственный шанс вернуть себе доброе имя и получить свободу.

Изображение
MPAA: Изображение
Мировая премьера: 7 апреля 2012
Релиз на DVD: 17 июля 2012, «Вольга»
Релиз на Blu-ray: 17 июля 2012, «Вольга»
Изображение
Раздача группы: Изображение
Качество: BDRip, 1080p
Формат: Matroska
Видео: AVC; 1920x804 (2.35:1); 12941 Kbps; 23,976 fps; 0,350 bit/pixel
Аудио №1: Russian; DTS; 754 Kbps; CBR; 6 ch; 24 bit
Аудио №2: DTS; 1509 Kbps; CBR; 6 ch; 24 bit
Оригинал
Субтитры №1: Russian
Субтитры №2:


"Знаете ли Вы, что..."
  • Главные отрицательные герои – братья Алекс и Хайделл. Алек Хиделл – псевдоним, который использовал Ли Харви Освальд.
  • В одной из сцен Сноу отмечает: «Вопреки распространённому мнению, на самом деле я не Гудини». Гай Пирс играл Гарри Гудини в фильме «Смертельный номер» (2007).
  • «Крик Вильгельма» звучит в фильме в сцене, где заключенный спотыкается и падает сразу после выхода из стазиса.
  • Когда стазисные камеры первый раз открываются, можно видеть как одна из них открывается дважды.
  • Когда сценарий был завершен, режиссеры убедили Бессона, что им необходимо полностью «пре-визуализировать» будущий фильм с помощью раскадровки и анимированных моделей героев и декораций.
  • Пре-визуализация оказалась чрезвычайно полезна для глав технических департаментов, сумевших благодаря ей получить более четкое представление об особенностях экшн-сцен, а также каскадеров, которые уяснили себе, чего хотят добиться постановщики. А учитывая, что все технические специалисты были разного происхождения – из Бразилии, Ирландии, Франции, Сербии, - пре-визуализация успешно помогла им преодолеть языковой барьер.
  • Главным инициатором создания картины выступила французская компания (она же продюсировала ленту), съемки фильма проходили в Сербии, основные роли исполнили англоговорящие актеры, и при этом на проект распространялись ирландские налоговые льготы.
  • Часть объектов и декораций сочетала элементы технических конструкций и зеленого экрана – таковы, например, космический полицейский департамент в форме листка клевера, фоном которому служили Земля и космические глубины, или шоссе, где разворачивается погоня на мотоциклах.
  • Эпизод в Овальном кабинете был снят на пивоваренном заводе Amstel, расположенном в пригороде сербской столицы.
  • В то время как монтаж и цветокоррекция картины проходили во Франции, визуальными эффектами занималась ирландская студия Windmillane.
Свернуть
MediaInfo
General
Unique ID : 198621664520373649112449828333216136569 (0x956D24211EE8A38BB17C9CE1CFA0FD79)
Complete name : Naprolom.2012.BDRip.1080p.mkv
Format : Matroska
Format version : Version 2
File size : 10.3 GiB
Duration : 1h 35mn
Overall bit rate : 15.5 Mbps
Encoded date : UTC 2012-07-13 08:00:57
Writing application : mkvmerge v5.7.0 ('The Whirlwind') built on Jul 8 2012 20:08:51
Writing library : libebml v1.2.3 + libmatroska v1.3.0

Video
ID : 1
Format : AVC
Format/Info : Advanced Video Codec
Format profile : High@L4.1
Format settings, CABAC : Yes
Format settings, ReFrames : 5 frames
Codec ID : V_MPEG4/ISO/AVC
Duration : 1h 35mn
Bit rate : 13.3 Mbps
Width : 1 920 pixels
Height : 804 pixels
Display aspect ratio : 2.40:1
Frame rate : 23.976 fps
Color space : YUV
Chroma subsampling : 4:2:0
Bit depth : 8 bits
Scan type : Progressive
Bits/(Pixel*Frame) : 0.358
Stream size : 8.62 GiB (83%)
Title : Lockout.2012.1080p.BluRay.DTS.x264.D-Z0N
Writing library : x264 core 125 r2200 999b753
Encoding settings : cabac=1 / ref=5 / deblock=1:-3:-3 / analyse=0x3:0x113 / me=tesa / subme=11 / psy=1 / psy_rd=1.75:0.13 / mixed_ref=1 / me_range=48 / chroma_me=1 / trellis=2 / 8x8dct=1 / cqm=0 / deadzone=6,6 / fast_pskip=0 / chroma_qp_offset=-3 / threads=6 / lookahead_threads=1 / sliced_threads=0 / nr=0 / decimate=0 / interlaced=0 / bluray_compat=0 / constrained_intra=0 / bframes=8 / b_pyramid=2 / b_adapt=2 / b_bias=0 / direct=3 / weightb=1 / open_gop=0 / weightp=2 / keyint=240 / keyint_min=23 / scenecut=40 / intra_refresh=0 / rc_lookahead=240 / rc=2pass / mbtree=1 / bitrate=13250 / ratetol=1.0 / qcomp=0.80 / qpmin=0 / qpmax=69 / qpstep=4 / cplxblur=20.0 / qblur=0.5 / vbv_maxrate=38000 / vbv_bufsize=30000 / nal_hrd=none / ip_ratio=1.10 / aq=1:1.10
Language : English
Default : Yes
Forced : No

Audio #1
ID : 2
Format : DTS
Format/Info : Digital Theater Systems
Codec ID : A_DTS
Duration : 1h 35mn
Bit rate mode : Constant
Bit rate : 755 Kbps
Channel(s) : 6 channels
Channel positions : Front: L C R, Side: L R, LFE
Sampling rate : 48.0 KHz
Bit depth : 24 bits
Compression mode : Lossy
Stream size : 514 MiB (5%)
Language : Russian
Default : Yes
Forced : No

Audio #2
ID : 3
Format : DTS
Format/Info : Digital Theater Systems
Codec ID : A_DTS
Duration : 1h 35mn
Bit rate mode : Constant
Bit rate : 1 510 Kbps
Channel(s) : 6 channels
Channel positions : Front: L C R, Side: L R, LFE
Sampling rate : 48.0 KHz
Bit depth : 24 bits
Compression mode : Lossy
Stream size : 1.01 GiB (10%)
Language : English
Default : No
Forced : No

Text #1
ID : 4
Format : UTF-8
Codec ID : S_TEXT/UTF8
Codec ID/Info : UTF-8 Plain Text
Title : Voronin
Language : Russian
Default : No
Forced : No

Text #2
ID : 5
Format : UTF-8
Codec ID : S_TEXT/UTF8
Codec ID/Info : UTF-8 Plain Text
Title : English
Language : English
Default : No
Forced : No

Menu
00:00:00.000 : en:Chapter 01
00:05:26.201 : en:Chapter 02
00:10:16.991 : en:Chapter 03
00:15:19.919 : en:Chapter 04
00:22:28.973 : en:Chapter 05
00:29:18.090 : en:Chapter 06
00:35:32.839 : en:Chapter 07
00:40:14.662 : en:Chapter 08
00:45:55.920 : en:Chapter 09
00:50:47.962 : en:Chapter 10
00:55:28.575 : en:Chapter 11
01:00:47.727 : en:Chapter 12
01:05:55.869 : en:Chapter 13
01:12:04.779 : en:Chapter 14
01:17:49.290 : en:Chapter 15
01:22:34.950 : en:Chapter 16

Свернуть

Скриншоты

Изображение
Изображение
Изображение
Изображение
Свернуть
_________________
ИзображениеИзображение Изображение
Изображение
 tany1984 и di-ys1 нравится это.
Не в сети
Профиль  
 Добавлено: 2012-07-14 12:55 (спустя 14 часов)
Аватара пользователя
Стаж: 7 лет 3 месяца
Сообщений: 8
:ya_hoo_oo:
Не в сети
Профиль  
 Добавлено: 2012-07-15 14:55 (спустя 1 день 1 час)
Аватара пользователя
Стаж: 7 лет 1 месяц
Сообщений: 6
:co_ol:
Не в сети
Профиль  
 Добавлено: 2012-07-15 18:15 (спустя 3 часа)
Аватара пользователя
Стаж: 8 лет 6 месяцев
Возраст: 26
Сообщений: 72
Лайков: 1
Классный фильм... считаю, что ему можно было и повыше рейтинг!
Не в сети
Профиль  
 Добавлено: 2012-07-15 19:10 (спустя 55 минут)
Аватара пользователя
Стаж: 7 лет 11 месяцев
Сообщений: 786
Спасибок: 25
Лайков: 9
;) Спасибо за Фильм
Не в сети
Профиль  
 Добавлено: 2012-07-20 21:16 (спустя 5 дней)
Аватара пользователя
Стаж: 8 лет 1 месяц
Сообщений: 110
Спасибок: 9
Спасибо=)
Не в сети
Профиль  
 Добавлено: 2012-07-23 17:01 (спустя 2 дня 19 часов)
Кинокомментатор
Аватара пользователя
Стаж: 9 лет 1 месяц
Сообщений: 1332
Лайков: 54
нормалёк кино!) но есть несколько но!:) во-первых реалистичность... хотя в этом и смысл, этого фильма, что это фантастика:) во-вторых - спец эффекты такие были году в 2008 наверное:) всё таки не США... Франция всё равно не тянет на комп графике дорогой. А так всё нормалёк) всё уже где то было, но всё хорошо!) мне понравилось:) 7/10
_________________
Я ВКонтакте
Не в сети
Профиль  
 Добавлено: 2012-09-22 21:09 (спустя 1 месяц 30 дней)
Аватара пользователя
Стаж: 7 лет 10 месяцев
Возраст: 35
Сообщений: 66
Спасибок: 6
:ps_ih: :ps_ih: :ps_ih:
Не в сети
Профиль  
 Добавлено: 2014-10-15 17:56 (спустя 2 года)
Аватара пользователя
Стаж: 5 лет 6 месяцев
Возраст: 23
Сообщений: 484
Спасибок: 1403
Лайков: 1
встаньте на раздачу плиз :)
Не в сети
Профиль  
Начать новую темуОтветить на тему  [ Сообщений: 9 ] 
Вы не можете начинать темы
Вы не можете отвечать на сообщения
Вы не можете редактировать свои сообщения
Вы не можете удалять свои сообщения