Правила форума

  • В этом разделе создание новых тем Запрещено.
  • Для создания новых тем пользуйтесь Корневым разделом DVD и HD фильмы.
Начать новую темуОтветить на тему  [ Сообщений: 3 ] 
Торрент файл
Размер: 8.63 GB • Зарегистрирован: 3 года 4 месяца • Статус: Проверено
Скачан: 75 раз • Желающих скачать: 0 • Поблагодарили: 18 раз
 Раздают: 0  |  0 KB/s  ]   Качают: 0  |  0 KB/s  ] 
 Полного источника не было 1 день 
Сообщения
 Добавлено: 2013-07-21 09:47
Модератор релиз-группы
Аватара пользователя
Стаж: 7 лет 8 месяцев
Возраст: 29
Сообщений: 9789
Спасибок: 23731
Лайков: 103
Изображение

Наркоз
Awake


Год выпуска: 2007
Страна: США
Слоган: «Каждый год 21 миллион человек оперируются под наркозом. Один из 700 остаётся в сознании. Когда они планировали убийство её мужа, они не думали, что он один из них.»
Жанр: триллер, драма, мелодрама, криминал
Продолжительность: 01:24:05
Перевод: Профессиональный (двухголосый)
Профессиональный (полное дублирование)

Режиссер: Джоби Харольд
Сценарий: Джоби Харольд
Продюсер: Джейсон Клиот, Джон Пенотти, Фишер Стивенс, Джоана Висенте, Келли Кармайкл
Оператор: Рассел Карпентер
Композитор: Грэм Ревелл, Сэмюэл Сим
В ролях: Хейден Кристенсен, Джессика Альба, Терренс Ховард, Лена Улин, Кристофер МакДональд, Сэм Робардс, Арлисс Ховард, Фишер Стивенс, Джорджина Чапмэн, Дэвид Харбор, Стивен Хинкль, Дэнис О’Харе
Бюджет: $8 600 000
Сборы в США: $14 374 840
Сборы в России: $1 097 000
Сборы в мире: $32 582 570
Мировая премьера: 30 ноября 2007
Релиз на DVD: 21 апреля 2008, «West Video»
Описание: Клай Бересфорд вынужден лечь под нож. Однако в процессе операции на сердце он неожиданно приходит в себя. Находясь в парализованном состоянии, будучи не в силах пошевелить ни рукой, ни ногой, он, тем не менее, чувствует каждое касание скальпеля к своей плоти...

Изображение User Rating: 7.576 (32 049)
Изображение User Rating: 6.40 (47 889)
MPAA: R - Лицам до 17 лет обязательно присутствие взрослого
Раздача группы: Изображение
Изображение
Качество: BDRip, 1080p
Формат: MKV
Видео: AVC; 1920x816 (2.35:1); 11696 Kbps; 23,976 fps; 0,311 bit/pixel
Аудио №1: русский; DTS; 755 Kbps; CBR; 6 ch; 24 bit
Аудио №2: русский; AC3; 448 Kbps; CBR; 6 ch
Аудио №3: DTS; 1510 Kbps; CBR; 6 ch; 24 bit

Субтитры №1: русские
Субтитры №2:

mediainfo
Общее
Уникальный идентификатор : 225607201302216260747734191516691613122 (0xA9BA5DD0B2C57830A1EAA186B8CE45C2)
Полное имя : D:\TORRENT\Narkoz.2007.x264.BDRip.1080p.mkv
Формат : Matroska
Размер файла : 8,63 Гбайт
Продолжительность : 1 ч. 24 м.
Общий поток : 14,7 Мбит/сек
Название фильма : Awake. 2007. BDRip (1080p) - ylnian (by kinozal.tv)
Дата кодирования : UTC 2012-06-21 01:53:58
Программа кодирования : mkvmerge v5.3.0 ('I could have danced') built on Feb 9 2012 10:38:07
Библиотека кодирования : libebml v1.2.3 + libmatroska v1.3.0

Видео
Идентификатор : 1
Формат : AVC
Формат/Информация : Advanced Video Codec
Профиль формата : High@L4.1
Параметр CABAC формата : Да
Параметр ReFrames формата : 6 кадров
Параметры GOP формата : N=1
Режим смешивания : Header stripping
Идентификатор кодека : V_MPEG4/ISO/AVC
Продолжительность : 1 ч. 24 м.
Вид битрейта : Переменный
Битрейт : 12,0 Мбит/сек
Максимальный битрейт : 40,0 Мбит/сек
Ширина : 1920 пикс.
Высота : 816 пикс.
Соотношение сторон : 2,35:1
Частота кадров : 23,976 кадр/сек
Цветовое пространство : YUV
Подвыборка цветности : 4:2:0
Битовая глубина : 8 бит
Тип развёртки : Прогрессивная
Бит/(Пиксели*Кадры) : 0.319
Размер потока : 6,87 Гбайт (80%)
Заголовок : Awake. 2007. BDRip (1080p)
Библиотека кодирования : x264 core 65 r997M 65b837f
Настройки программы : cabac=1 / ref=6 / deblock=1:-3:-3 / analyse=0x3:0x133 / me=esa / subme=9 / psy_rd=1.0:0.0 / mixed_ref=1 / me_range=32 / chroma_me=1 / trellis=2 / 8x8dct=1 / cqm=2 / deadzone=21,11 / chroma_qp_offset=-2 / threads=12 / nr=0 / decimate=0 / mbaff=0 / bframes=6 / b_pyramid=1 / b_adapt=2 / b_bias=0 / direct=3 / wpredb=1 / keyint=250 / keyint_min=25 / scenecut=40(pre) / rc=2pass / bitrate=11991 / ratetol=1.0 / qcomp=0.60 / qpmin=10 / qpmax=51 / qpstep=4 / cplxblur=20.0 / qblur=0.5 / ip_ratio=1.40 / pb_ratio=1.30 / aq=1:1.2
Язык : English

Аудио #1
Идентификатор : 2
Формат : DTS
Формат/Информация : Digital Theater Systems
Режим смешивания : Header stripping
Идентификатор кодека : A_DTS
Продолжительность : 1 ч. 24 м.
Вид битрейта : Постоянный
Битрейт : 755 Кбит/сек
Каналы : 6 каналов
Расположение каналов : Front: L C R, Side: L R, LFE
Частота : 48,0 КГц
Битовая глубина : 24 бит
Метод сжатия : С потерями
Размер потока : 454 Мбайт (5%)
Заголовок : DUB (DTS 5.1 755 kbps)
Язык : Russian

Аудио #2
Идентификатор : 3
Формат : AC-3
Формат/Информация : Audio Coding 3
Расширение режима : CM (complete main)
Режим смешивания : Header stripping
Идентификатор кодека : A_AC3
Продолжительность : 1 ч. 24 м.
Вид битрейта : Постоянный
Битрейт : 448 Кбит/сек
Каналы : 6 каналов
Расположение каналов : Front: L C R, Side: L R, LFE
Частота : 48,0 КГц
Битовая глубина : 16 бит
Метод сжатия : С потерями
Задержка видео : 24 мс.
Размер потока : 269 Мбайт (3%)
Заголовок : DVO (AC3 5.1 448 kbps)
Язык : Russian

Аудио #3
Идентификатор : 4
Формат : DTS
Формат/Информация : Digital Theater Systems
Режим смешивания : Header stripping
Идентификатор кодека : A_DTS
Продолжительность : 1 ч. 24 м.
Вид битрейта : Постоянный
Битрейт : 1510 Кбит/сек
Каналы : 6 каналов
Расположение каналов : Front: L C R, Side: L R, LFE
Частота : 48,0 КГц
Битовая глубина : 24 бит
Метод сжатия : С потерями
Размер потока : 908 Мбайт (10%)
Заголовок : DTS 5.1 1510 kbps
Язык : English

Текст #1
Идентификатор : 5
Формат : UTF-8
Идентификатор кодека : S_TEXT/UTF8
Идентификатор кодека/Информация : UTF-8 Plain Text
Язык : Russian

Текст #2
Идентификатор : 6
Формат : UTF-8
Идентификатор кодека : S_TEXT/UTF8
Идентификатор кодека/Информация : UTF-8 Plain Text
Язык : English


Свернуть
"Знаете ли Вы, что..."
  • Съемочная группа вместе с актерами, чтобы точно знать, что им предстоит делать, присутствовали на настоящей операции по пересадке сердца.
  • В процессе создания сценария фильма Гарольд побеседовал с более чем 50 медсестрами и четырьмя хирургами.
  • До Кристенсена и Альбы на главные роли в фильме претендовали Джаред Лето и Кейт Босуорт.
Свернуть
Скриншоты

Изображение
Изображение
Изображение
Свернуть
Не в сети
Профиль  
 Добавлено: 2013-07-21 12:57 (спустя 3 часа)
Стаж: 7 лет 9 месяцев
Сообщений: 9
Смотрел этот фильм в далёком 2007!!! Достойное кино, советую всем.
Не в сети
Профиль  
 Добавлено: 2013-08-14 12:20 (спустя 23 дня)
Аватара пользователя
Стаж: 8 лет 1 месяц
Сообщений: 29
Спасибок: 1
Лайков: 1
не надоест смотреть, фильм хорош


Тема поднималась пользователем volkov2009 2013-08-14 12:20.
Не в сети
Профиль  
Начать новую темуОтветить на тему  [ Сообщений: 3 ] 
Вы не можете начинать темы
Вы не можете отвечать на сообщения
Вы не можете редактировать свои сообщения
Вы не можете удалять свои сообщения