Правила форума

  • В этом разделе создание новых тем Запрещено.
  • Для создания новых тем пользуйтесь Корневым разделом DVD и HD фильмы.
Начать новую темуОтветить на тему  [ Сообщений: 9 ] 
Торрент файл
Размер: 21.67 GB • Зарегистрирован: 5 лет 2 месяца • Статус: Проверено
Скачан: 380 раз • Желающих скачать: 0 • Поблагодарили: 107 раз
 Раздают: 2  |  0 KB/s  ]   Качают: 0  |  0 KB/s  ] 
Сообщения
 Добавлено: 2011-10-08 14:27
Top-releaser
Аватара пользователя
Стаж: 8 лет 9 месяцев
Сообщений: 479
Спасибок: 20190
Лайков: 16
Изображение

Изображение

1985 - Назад в будущее / Back to the Future

Изображение

Back to the Future

«Семнадцатилетний Марти МакФлай пришел вчера домой пораньше. На 30 лет раньше. »

Изображение

Год выпуска: 1985
Страна: Изображение США
Жанр: Фантастика, приключения, семейный
Продолжительность: 01:56:00
Перевод: Профессиональный (дублированный) Пифагор

Режиссёр: Роберт Земекис / Robert Zemeckis

В ролях: Майкл Дж. Фокс, Криспин Гловер, Кристофер Ллойд, Томас Ф. Уилсон, Лиа Томпсон, Клодия Уэллс, Марк МакКлюр, Уэнди Джо Спербер, Джордж ДиЧензо, Фрэнсис Ли МакКейн, Джеймс Толкан, Кэйси Семашко, Билли Зэйн, Хэрри Уотерс-мл., Лиза Фриман, Кристен Кауффман, Уилл Хэр, Джейсон Херви, Майа Брютон, Кортни Гэйнс, Джонни Грин, Норман Олден, Роберт Крантц, Гэри Райли, Джордж "Бак" Флауэр, Томми Томас, Пол Хэнсон

Описание: Подросток Марти с помощью машины времени, сооруженной его другом профессором доком Брауном, попадает из 80-х в далекие 50-е. Там он встречается со своими будущими родителями, еще подростками, и другом-профессором, совсем молодым.
Он нарушает естественный ход событий прошлого, чем вызывает массу смешных и драматических ситуаций. Собственная смекалка и фантазия профессора помогают преодолеть все препятствия и благополучно вернуться к себе, в свое время.


Качество: BDRip 1080p
Формат: MKV

Видео: AVC, 1920 x 1040 (1.846) at 23.976 fps, 8356 Кбит/сек
Аудио: DTS, 6 ch, 755 Кбит/сек, 48,0 КГц
Раздача: Изображение

Изображение

Изображение
Знаете ли Вы что....

* Специально ради фильма Майкл Джей Фокс научился кататься на скейтборде.
* Сценаристы долго не могли понять, каким же образом представить машину времени. В первой версии сценария данным устройством являлась лазерная установка в лаборатории доктора Брауна. Также был вариант с холодильником, но эту идею отвергли из-за возникших опасений, что маленькие детишки начнут проверять свои холодильники на наличие в нем похожего устройства и ненароком закроют дверцу за собой.
* Когда Роберт Земекис пытался продать идею своего фильма, он в первую очередь обратился в компанию, знаменитую своими семейными картинами, — компанию Уолта Диснея. Однако они зарубили сценарий на корню, посчитав, что изображение любовных взаимоотношений мамы и сына, пусть даже и через призму времени (кстати, разница в возрасте актеров, исполняющих эти роли, в действительности составляет всего 10 дней) будет довольно рискованным мероприятием для компании, дорожащей своей репутацией.
* Когда Рональд Рейган (действующий президент США) смотрел картину в первый раз, он был настолько поражен репликой Дока: «Да как актер смог стать президентом?», что попросил персонал кинотеатра остановить пленку, перемотать и прокрутить этот момент еще раз. Фильм настолько понравился Рональду Рейгану, что он включил ссылку на картину Земекиса в своё обращение к нации в 1986 году: «И как было сказано в фильме «Назад в будущее», «Там, куда мы отправляемся, дороги нам не понадобятся».
* В рамках картины состоялось первое появление на экране актера Билли Зейна, впоследствии сыгравшего роль главного злодея в фильме «Титаник».
* Многие кандидатки на роль Дженнифер были отвергнуты лишь по причине слишком высокого роста — все они были выше Майкла Джея Фокса (рост 1,64 м).
* Кристофер Ллойд создавал образ своего персонажа — Дока, основываясь на манерах поведения физика Альберта Эйнштейна и дирижера Леопольда Стоковски.
* Актрисе Леа Томпсон пришлось проводить ежедневно порядка 3 часов в гримерке, чтобы из 23-летней девушки превратиться в 47-семилетнюю.
* Для декораций главной улицы города были использованы декорации «Гремлинов» (1984).
* Имя доктора Брауна - Эмметт (Emmett) является наоборот прочитанным словом «время» (time), только произнесенным по слогам (em-it).

Свернуть
MediaInfo

Общее
Уникальный идентификатор : 244220751377494491130482498810079508996 (0xB7BB34B01624920B9AFF562196FE7A04)
Полное имя : D:\Cinema\Back to the Future 1-3\Back to the Future Part 1.mkv
Формат : Matroska
Размер файла : 7,24 Гбайт
Продолжительность : 1 ч. 56 м.
Общий поток : 8935 Кбит/сек
Название фильма : Назад в будущее 1 / Back to the Future 1 [25th Anniversary Edition]-Rip by Neofilm for Lazeek.info
Дата кодирования : UTC 2010-11-07 18:09:48
Программа кодирования : mkvmerge v4.4.0 ('Die Wiederkehr') сборка от Oct 31 2010 21:52:48
Библиотека кодирования : libebml v1.0.0 + libmatroska v1.0.0

Видео
Идентификатор : 1
Формат : AVC
Формат/Информация : Advanced Video Codec
Профиль формата : High@L4.1
Параметр CABAC формата : Да
Параметр ReFrames формата : 4 кадры
Идентификатор кодека : V_MPEG4/ISO/AVC
Продолжительность : 1 ч. 56 м.
Битрейт : 8356 Кбит/сек
Ширина : 1920 пикс.
Высота : 1040 пикс.
Соотношение сторон : 16:9
Частота кадров : 23,976 кадр/сек
Цветовое пространство : YUV
Подвыборка цветности : 4:2:0
Битовая глубина : 8 бит
Тип развёртки : Прогрессивная
Бит/(Пиксели*Кадры) : 0.175
Размер потока : 6,49 Гбайт (90%)
Заголовок : Назад в будущее 1 / Back to the Future 1 [25th Anniversary Edition]
Библиотека кодирования : x264 core 92 r1510 33d382a
Настройки программы : cabac=1 / ref=4 / deblock=1:-3:-3 / analyse=0x3:0x113 / me=tesa / subme=10 / psy=1 / psy_rd=1.00:0.20 / mixed_ref=1 / me_range=32 / chroma_me=1 / trellis=2 / 8x8dct=1 / cqm=0 / deadzone=21,11 / fast_pskip=0 / chroma_qp_offset=-3 / threads=6 / sliced_threads=0 / nr=0 / decimate=0 / interlaced=0 / constrained_intra=0 / bframes=4 / b_pyramid=2 / b_adapt=2 / b_bias=0 / direct=3 / wpredb=1 / wpredp=2 / keyint=250 / keyint_min=25 / scenecut=40 / intra_refresh=0 / rc_lookahead=60 / rc=cbr / mbtree=1 / bitrate=8356 / ratetol=1.0 / qcomp=0.60 / qpmin=10 / qpmax=51 / qpstep=4 / vbv_maxrate=50000 / vbv_bufsize=50000 / ip_ratio=1.40 / aq=1:1.00 / nal_hrd=none
Язык : Russian

Аудио
Идентификатор : 2
Формат : DTS
Формат/Информация : Digital Theater Systems
Идентификатор кодека : A_DTS
Продолжительность : 1 ч. 56 м.
Вид битрейта : Постоянный
Битрейт : 755 Кбит/сек
Канал(ы) : 6 канала(ов)
Расположение каналов : Front: L C R, Side: L R, LFE
Частота : 48,0 КГц
Битовая глубина : 24 бит
Метод сжатия : С потерями
Размер потока : 626 Мбайт (8%)
Заголовок : Дубляж
Язык : Russian

Свернуть
Награды и номинации

Изображение
Свернуть
Скриншоты
Изображение
Изображение
Изображение
Изображение
Изображение
Свернуть

Свернуть
1989 - Назад в будущее 2 / Back to the Future Part II

Изображение

Back to the Future Part II

«Все это о времени»

Изображение

Год выпуска: 1989
Страна: Изображение США
Жанр: Фантастика, боевик, комедия, приключения, семейный
Продолжительность: 01:47:59
Перевод: Профессиональный (дублированный) Пифагор

Режиссёр: Роберт Земекис / Robert Zemeckis

В ролях: Майкл Дж. Фокс, Элизабет Шу, Кристофер Ллойд, Томас Ф. Уилсон, Лиа Томпсон, Марк МакКлюр, Уэнди Джо Спербер, Джордж ДиЧензо, Фрэнсис Ли МакКейн, Джеймс Толкан, Кэйси Семашко, Билли Зэйн, Хэрри Уотерс-мл., Лиза Фриман, Кристен Кауффман, Уилл Хэр, Джейсон Херви, Майа Брютон, Кортни Гэйнс, Джонни Грин, Норман Олден, Роберт Крантц, Гэри Райли, Томми Томас, Элайджа Вуд, Пол Хэнсон, Аль Уайт

Описание: Продолжение фантастической истории о приключениях американского подростка во времени. На этот раз с помощью модернизированной Доком машины времени Марти из 80-х попадает в будущее.

Дети Марти в беде, и их надо выручать. Приходится повозиться со злодеем…


Качество: BDRip 1080p
Формат: MKV

Видео: AVC, 1920 x 1040 (1.846) at 23.976 fps, 8500 Кбит/сек
Аудио: DTS, 6 ch, 755 Кбит/сек, 48,0 КГц
Раздача: Изображение

Изображение

Изображение
Знаете ли Вы что....

* Во время съемок «будущего» Майкл Джей Фокс сыграл себя в старости, сыграл своего сына и свою дочь. Нанесение грима занимало около 4-5 часов. Эпизоды были отсняты без применения компьютерных спецэффектов, кадры просто накладывались один на другой. Весь реквизит, попадавший в кадр, приходилось приклеивать, чтобы он не сдвинулся при последующей съемке одной и той же сцены.
* В первоначальной версии сценария основные действия фильма должны были разворачиваться в 60-х годах, а именно - в 1967 году.
* Создание сиквела началось только через 5 лет после премьеры первой части. Роберт Земекис во время написания сценария фильма снимал комедийный детектив «Кто подставил кролика Роджера».
* Все главные герои первого фильма согласились играть свои роли и в продолжении, за исключением Криспина Гловера (Джордж МакФлай, отец Марти). Он установил слишком жесткие условия для продюсеров. А так же Клаудия Уэллс, сыгравшая Дженнифер в «Назад в будущее» (1985), предпочла закончить актерскую карьеру в 1987 году. В «Назад в будущее 2» Элизабет Шу исполнила роль Дженнифер. Последняя сцена «Назад в будущее» (1985) была специально переснята с участием Элизабет.
* Чарльз Фляйшер, озвучивший Кролика Роджера, сыграл пожилого человека, жалующегося, что он не поставил на чемпионов по бейсболу. Персонаж, который говорит с Марти об этом – механик, починивший машину Биффа в 1955 году.
* Когда Дженнифер, потерявшую сознание, доставляют до дома два офицера полиции в 2015 году, можно заметить, что лицо одной представительницы правопорядка нам упорно стараются не показывать. Мэри Эллен Трэйнор, на момент съёмок фильма жена Роберта Земекиса, сыграла этого полицейского.
* Изначально планировался только один сиквел. Сценарий под названием «Парадокс» объединял в себе элементы второй и третьей частей трилогии, но сжатые в один фильм. Однако, просмотрев бонусы на DVD-издании фильма, можно узнать, что существовала еще более ранняя версия сценария, в которой Марти встречался со своими родителями, когда они были студентами в 1960-е годы.

Свернуть
MediaInfo

Общее
Уникальный идентификатор : 179493633928188065782322249194564251872 (0x87093768AC0783ECB22841EBB94070E0)
Полное имя : D:\Cinema\Back to the Future 1-3\Back to the Future Part 2.mkv
Формат : Matroska
Размер файла : 6,89 Гбайт
Продолжительность : 1 ч. 47 м.
Общий поток : 9129 Кбит/сек
Название фильма : Назад в будущее 2 / Back to the Future Part II (1989)-Rip by Neofilm for Lazeek.info
Дата кодирования : UTC 2010-11-11 15:34:15
Программа кодирования : mkvmerge v4.4.0 ('Die Wiederkehr') сборка от Oct 31 2010 21:52:48
Библиотека кодирования : libebml v1.0.0 + libmatroska v1.0.0

Видео
Идентификатор : 1
Формат : AVC
Формат/Информация : Advanced Video Codec
Профиль формата : High@L4.1
Параметр CABAC формата : Да
Параметр ReFrames формата : 4 кадры
Идентификатор кодека : V_MPEG4/ISO/AVC
Продолжительность : 1 ч. 47 м.
Битрейт : 8500 Кбит/сек
Ширина : 1920 пикс.
Высота : 1040 пикс.
Соотношение сторон : 16:9
Частота кадров : 23,976 кадр/сек
Цветовое пространство : YUV
Подвыборка цветности : 4:2:0
Битовая глубина : 8 бит
Тип развёртки : Прогрессивная
Бит/(Пиксели*Кадры) : 0.178
Размер потока : 6,18 Гбайт (90%)
Заголовок : Назад в будущее 2 / Back to the Future Part II (1989)
Библиотека кодирования : x264 core 92 r1510 33d382a
Настройки программы : cabac=1 / ref=4 / deblock=1:-3:-3 / analyse=0x3:0x113 / me=tesa / subme=10 / psy=1 / psy_rd=1.00:0.20 / mixed_ref=1 / me_range=32 / chroma_me=1 / trellis=2 / 8x8dct=1 / cqm=0 / deadzone=21,11 / fast_pskip=0 / chroma_qp_offset=-3 / threads=6 / sliced_threads=0 / nr=0 / decimate=0 / interlaced=0 / constrained_intra=0 / bframes=4 / b_pyramid=2 / b_adapt=2 / b_bias=0 / direct=3 / wpredb=1 / wpredp=2 / keyint=250 / keyint_min=25 / scenecut=40 / intra_refresh=0 / rc_lookahead=60 / rc=cbr / mbtree=1 / bitrate=8500 / ratetol=1.0 / qcomp=0.60 / qpmin=10 / qpmax=51 / qpstep=4 / vbv_maxrate=50000 / vbv_bufsize=50000 / ip_ratio=1.40 / aq=1:1.00 / nal_hrd=none
Язык : Russian

Аудио
Идентификатор : 2
Формат : DTS
Формат/Информация : Digital Theater Systems
Идентификатор кодека : A_DTS
Продолжительность : 1 ч. 47 м.
Вид битрейта : Постоянный
Битрейт : 755 Кбит/сек
Канал(ы) : 6 канала(ов)
Расположение каналов : Front: L C R, Side: L R, LFE
Частота : 48,0 КГц
Битовая глубина : 24 бит
Метод сжатия : С потерями
Задержка видео : 10 мс.
Размер потока : 583 Мбайт (8%)
Заголовок : Дубляж
Язык : Russian

Свернуть
Награды и номинации

Изображение
Свернуть
Скриншоты
Изображение
Изображение
Изображение
Изображение
Изображение
Свернуть

Свернуть
1990 - Назад в будущее 3 / Back to the Future Part III

Изображение

Back to the Future Part III

«Лучшее путешествие они оставили напоследок... Но в этот раз они зашли слишком далеко...»

Изображение

Год выпуска: 1990
Страна: Изображение США
Жанр: Фантастика, комедия, приключения, семейный, вестерн
Продолжительность: 01:58:17
Перевод: Профессиональный (дублированный) Пифагор

Режиссёр: Роберт Земекис /Robert Zemeckis

В ролях: Майкл Дж. Фокс, Кристофер Ллойд, Мэри Стинберген, Томас Ф. Уилсон, Лиа Томпсон, Элизабет Шу, Джеймс Толкэн, Мэтт Кларк, Даб Тейлор, Гарри Кэри мл.

Описание: Из газет 1955 года Марти узнает, что доктор Браун погиб еще сто лет назад. Несмотря на просьбы Дока не навещать его в XIX веке, Марти вновь хочет вмешаться в ход событий и на машине времени уносится в 1885 год, навстречу Дикому Западу.

Это путешествие, как и все прежние, не обходится без опасных приключений, но смелый Марти, рискуя жизнью, предотвращает трагедию в жизни Эммета Брауна. Тот, в свою очередь, без памяти влюбляется в очаровательную незнакомку, которую спасает от гибели, и поездка домой — в будущее — теряет для него всякий смысл…


Качество: BDRip 1080p
Формат: MKV

Видео: AVC, 1920 x 1040 (1.846) at 23.976 fps, 8500 Кбит/сек
Аудио: DTS, 6 ch, 755 Кбит/сек, 48,0 КГц
Раздача: Изображение

Изображение

Изображение
Знаете ли Вы что....

* Имя редактора газеты Хилл Вэлли в 1885 году – М.П. Гэйл, что является ссылкой на сценариста трилогии «Назад в будущее» Боба Гэйла.
* Название компании по перевозке навоза в 1885 году – «А. Джонс». В фильме «Назад в будущее» (1985) название компании по перевозке навоза – «Д. Джонс».
* Съёмки второй и третьей частей трилогии проходили одновременно.
* В фильме «Назад в будущее 2» (1989), в альтернативном 1985 Бифф смотрит «За пригоршню долларов» (1964), где герой Клинта Иствуда использует лист стали в качестве бронежилета. Марти использует крышку печки в качестве бронежилета в 1885.
* Обратив внимание на указатель на переезде в 1985 году, можно узнать название местности – ущелье Иствуда.
* Бешеный пес – имя главного злодея из видеоигры «Wild Gunman», в которую играет Марти в фильме «Назад в будущее 2» (1989).
* Группа «ZZ Top» исполнила небольшое камео в фильме, а также написала часть музыки. Во время своего появления на экране они исполняют песню «Doubleback», которая вошла в саундтрек фильма.
* Часы на башне начали свой ход в 20:00 пятого сентября 1885 года. В первом фильме молния попадает в башню с часами в 22:04 двенадцатого ноября 1955 года. Таким образом, часы на башне функционировали на протяжении 70 лет, 2 месяцев, 7 дней, 2 часов и 4 минут.
* Когда Марти заходит в город со стороны железнодорожной станции, камера неспешно поднимается над станцией и показывает Марти в удалении, идущего по городу. Данная сцена – покадровое воспроизведение сцены в фильме «Однажды на Диком Западе» (1968), в которой Джил приезжает на станцию.
* Для фильма специально построили кинотеатр под открытым небом. Когда съёмки закончились, кинотеатр разобрали, так и не показав на его экране ни одного фильма.
* Когда Марти и Док находятся в кинотеатре под открытым небом и готовят «DeLorean» к прыжку во времени, Марти упоминает Клинта Иствуда, но Док не понимает, о ком идет разговор. Во время данного диалога на стенах кинотеатра можно заметить афиши фильмов «Месть твари» (1955) и «Тарантул» (1955), где одну из ролей сыграл Клинт Иствуд.
* Прежде чем отправить Марти в 1885 год, Док говорит, что он специально выбрал кинотеатр под открытым небом, для того чтобы Марти не сбил дерево. В фильме «Назад в будущее» (1985) Марти сбивал одну из сосен на ферме Пибади в 1955 году.
* Клару можно заметить позади Марти и Дока, когда они смотрят на карту на железнодорожной станции.
* Не считая перемещения Дока во времени, которые остаются за кадром, срок жизни «DeLorean» от момента первого перемещения до разрушения составляет около 71 года (по временной шкале «DeLorean).
* Когда Марти окончательно возвращается в 1985 год, он приблизительно на 14 дней, 3 часа и 27 минут старше, чем должен быть; Дженнифер, наоборот, - на 7 часов и 26 минут младше.
* 12 ноября 1955 года, между временем, когда прибывает Бифф (около 6:00) и 18:38, в Хилл Вэлли находится 4 «DeLorean»: (1) на которой Марти попал в 1955 год в первом фильме; (2) на которой Бифф возвращается в 1955 год, для того чтобы передать самому себе спортивный альманах; (3) на которой Марти и Док возвращаются в 1955, для того чтобы забрать альманах; (4) которая была спрятана Доком в заброшенной шахте.
* В течение всей трилогии зритель может увидеть четырнадцать перемещений во времени, не считая тех, что случились за кадром, или те, что только упоминаются в разговорах между персонажами: 1) Собака Дока, Эйнштейн, была послана на одну минуту вперед в будущее, для того чтобы провести тестирование машины времени. 2) Марти отправляется в 1955 год из 1985. 3) Марти возвращается в 1985 из 1955. 4) Док отправляется в 2015 из 1985 5) Док возвращается в 1985 из 2015. 6) Док, Марти и Дженнифер отправляются в 2015 из 1985. 7) Бифф отправляется в 1955 из 2015, для того чтобы отдать самому себе спортивный альманах, тем самым, создав альтернативное течение времени. 8) Бифф возвращается в 2015 из 1955. 9) Док, Марти и Дженнифер возвращаются в альтернативный 1985 из 2015. 10) Марти и Док отправляются в 1955 из альтернативного 1985, для того чтобы выкрасть спортивный альманах. 11) Из-за попадания молнии Док случайно отправляется в 1885 из 1955. 12) Марти отправляется в 1885 из 1955, для того чтобы спасти Дока. 13) Марти возвращается в 1985 из 1885. 14) Док и его семья отправляются в 1985 год, для того чтобы познакомить своих детей с Марти и Дженнифер, а также передать Марти фотографию, на которой изображены Марти и Док на фоне башенных часов.
* В сцене, где Бешеный пес пытается расправиться с Марти, по недосмотру Майкл Дж. Фокс на короткое время был по-настоящему повешен на веревке, в следствие чего он потерял сознание на небольшой промежуток времени.
* «Назад в будущее 3» стало первой картиной, в начале которой появлялся логотип 75-летия студии «Universal». Данная заставка просуществовала до 1997 года.
* Создатели фильма спросили разрешение Клинта Иствуда на использование его имени в фильме. Клинт согласился и был польщен ссылкой на многочисленных героев вестернов, которых он сыграл.
* Каждый из приспешников Нидлса также сыграл какого-то персонажа в других бандах, упоминавшихся в трилогии: Дж. Дж. Коэн – бритоголовый в банде Биффа в «Назад в будущее» (1985) и «Назад в будущее 2» (1989); Рики Дин Логан – Дэйта в банде Грифа в «Назад в будущее 2» (1989); Кристофер Винн – один из участников банды Буфорда в третьем фильме.
* Во время сцены по приготовлению «Коктейля пробуждение» можно заметить бутылочку с острой перечной приправой, внешний вид которой полностью соответствовал временному периоду.
* Изначально Буфорд Тэннен должен был застрелить маршала Стрикланда. Его сын был свидетелем убийства. Однако при окончательном монтаже данную сцену посчитали слишком мрачной и вырезали из фильма. Вот почему заместитель Стрикланда, а не сам маршал арестовывает Буфорда в конце фильма. Неизмененную сцену можно посмотреть в разделе «Удаленные сцены» на DVD.
* В фильме «Назад в будущее» (1985), Док говорит Марти, что идея поточного конденсатора осенила его, после того как он ударился головой о раковину в ванной комнате, пытаясь повесить часы над унитазом. В данной картине, когда Док замечает Марти в своем доме и бежит в ванную комнату, мы можем заметить висящие над унитазом часы.
* Марти использует летающую тарелку, для того чтобы выбить пистолет из рук Бешеного пса. В 1871 году «Frisbie Pie Company» была организована в Коннектикуте.
* Вторая и третья части трилогии снимались одновременно. Съёмочный период составил 11 месяцев с учетом трехнедельного перерыва.
* Приблизительно на протяжении трех недель Роберт Земекис летал в Лос-Анджелес после окончания съёмочного дня на «Назад в будущее 3», для того чтобы утвердить монтаж звука для «Назад в будущее 2» (1989). На следующий день Земекис просыпался в 4:30 утра и летел обратно в Северную Калифорнию, для того чтобы продолжить съёмки.
* Во время съёмок второй и третьей частей трилогии у Майкла Дж. Фокса умер отец и родился сын.
* Боб Гэйл и Роберт Земекис решили, что в первых двух фильмах они рассказали о Марти всё, что только возможно. Поэтому в третьей картине они решили сконцентрировать внимание зрителей на Доке.
* Дети Мэри Стинберген убедили её сняться в фильме.
* Для того чтобы подчеркнуть увлеченность Дока Жуль Верном, его поезд для путешествия во времени был сконструирован таким образом, чтобы напоминать «Наутилус» из фильма «20000 лье под водой» (1954).
* Из-за смерти отца Майкла Дж. Фокса съёмки фильма были задержаны на две недели.

Свернуть
MediaInfo

Общее
Уникальный идентификатор : 218347099963102287262302986952793294643 (0xA4441F2EDE501DCCA2B52148C08A8733)
Полное имя : D:\Cinema\Back to the Future 1-3\Back to the Future Part 3.mkv
Формат : Matroska
Размер файла : 7,54 Гбайт
Продолжительность : 1 ч. 58 м.
Общий поток : 9124 Кбит/сек
Название фильма : Назад в будущее 3 / Back to the Future Part III (1990)-Rip by Neofilm for Lazeek.info
Дата кодирования : UTC 2010-11-14 14:16:49
Программа кодирования : mkvmerge v4.4.0 ('Die Wiederkehr') сборка от Oct 31 2010 21:52:48
Библиотека кодирования : libebml v1.0.0 + libmatroska v1.0.0

Видео
Идентификатор : 1
Формат : AVC
Формат/Информация : Advanced Video Codec
Профиль формата : High@L4.1
Параметр CABAC формата : Да
Параметр ReFrames формата : 4 кадры
Идентификатор кодека : V_MPEG4/ISO/AVC
Продолжительность : 1 ч. 58 м.
Битрейт : 8500 Кбит/сек
Ширина : 1920 пикс.
Высота : 1040 пикс.
Соотношение сторон : 16:9
Частота кадров : 23,976 кадр/сек
Цветовое пространство : YUV
Подвыборка цветности : 4:2:0
Битовая глубина : 8 бит
Тип развёртки : Прогрессивная
Бит/(Пиксели*Кадры) : 0.178
Размер потока : 6,77 Гбайт (90%)
Заголовок : Назад в будущее 3 / Back to the Future Part III (1990)
Библиотека кодирования : x264 core 92 r1510 33d382a
Настройки программы : cabac=1 / ref=4 / deblock=1:-3:-3 / analyse=0x3:0x113 / me=esa / subme=9 / psy=1 / psy_rd=1.00:0.20 / mixed_ref=1 / me_range=32 / chroma_me=1 / trellis=2 / 8x8dct=1 / cqm=0 / deadzone=21,11 / fast_pskip=0 / chroma_qp_offset=-3 / threads=6 / sliced_threads=0 / nr=0 / decimate=0 / interlaced=0 / constrained_intra=0 / bframes=4 / b_pyramid=2 / b_adapt=2 / b_bias=0 / direct=3 / wpredb=1 / wpredp=2 / keyint=250 / keyint_min=25 / scenecut=40 / intra_refresh=0 / rc_lookahead=60 / rc=cbr / mbtree=1 / bitrate=8500 / ratetol=1.0 / qcomp=0.60 / qpmin=10 / qpmax=51 / qpstep=4 / vbv_maxrate=50000 / vbv_bufsize=50000 / ip_ratio=1.40 / aq=1:1.00 / nal_hrd=none
Язык : Russian

Аудио
Идентификатор : 2
Формат : DTS
Формат/Информация : Digital Theater Systems
Идентификатор кодека : A_DTS
Продолжительность : 1 ч. 58 м.
Вид битрейта : Постоянный
Битрейт : 755 Кбит/сек
Канал(ы) : 6 канала(ов)
Расположение каналов : Front: L C R, Side: L R, LFE
Частота : 48,0 КГц
Битовая глубина : 24 бит
Метод сжатия : С потерями
Задержка видео : 10 мс.
Размер потока : 638 Мбайт (8%)
Заголовок : Дубляж
Язык : Russian

Свернуть
Скриншоты
Изображение
Изображение
Изображение
Изображение
Изображение
Свернуть

Свернуть
_________________
Изображение
Изображение
Не в сети
Профиль  
 Добавлено: 2011-10-26 09:02 (спустя 17 дней)
Аватара пользователя
Стаж: 7 лет 11 месяцев
Возраст: 31
Сообщений: 223
Спасибок: 950
Супер! Огромное СПАСИБО!!!
Не в сети
Профиль  
 Добавлено: 2011-10-26 13:38 (спустя 4 часа)
Аватара пользователя
Стаж: 9 лет 1 месяц
Сообщений: 251
Спасибок: 177
Хммм... а оригинальную дорожку в такое-то качество? ;О
Не в сети
Профиль  
 Добавлено: 2011-11-29 09:20 (спустя 1 месяц 2 дня)
Аватара пользователя
Стаж: 8 лет 2 месяца
Возраст: 28
Сообщений: 61
Спасибок: 1
Фильм просто шедевр!!!!!
Не в сети
Профиль  
 Добавлено: 2012-01-11 21:50 (спустя 1 месяц 12 дней)
Аватара пользователя
Стаж: 8 лет 1 месяц
Возраст: 26
Сообщений: 132
Лайков: 1
народ добавте скорость пожалуста!!!!
Не в сети
Профиль  
 Добавлено: 2012-01-12 20:27 (спустя 22 часа)
Стаж: 6 лет 11 месяцев
Сообщений: 24
deleted


Последний раз редактировалось blackmesar 2016-02-11 13:09, всего редактировалось 1 раз.
Не в сети
Профиль  
 Добавлено: 2012-01-18 12:16 (спустя 5 дней)
Аватара пользователя
Стаж: 8 лет 3 месяца
Сообщений: 1278
Лайков: 12
а можно как то где то другие дорожки скачать?
нужна бы оригинальная с сабами и еще с другим переводом из детства :) - не помню чей, помню синхронный был
_________________
воставшим из могил пути домой закрыты - поэтому они печальны и сердиты (с) А.и Б. Стругацкие
Не в сети
Профиль  
 Добавлено: 2013-09-07 16:39 (спустя 1 год 7 месяцев)
Аватара пользователя
Стаж: 3 года 7 месяцев
Возраст: 36
Сообщений: 212
Спасибок: 1248
Спасибо!
Не в сети
Профиль  
 Добавлено: 2014-04-02 20:09 (спустя 6 месяцев)
Стаж: 4 года 5 месяцев
Сообщений: 4
Спасибо!
Не в сети
Профиль  
Начать новую темуОтветить на тему  [ Сообщений: 9 ] 
Вы не можете начинать темы
Вы не можете отвечать на сообщения
Вы не можете редактировать свои сообщения
Вы не можете удалять свои сообщения