Правила форума

  • В этом разделе создание новых тем Запрещено.
  • Для создания новых тем пользуйтесь Корневым разделом DVD и HD фильмы.
Начать новую темуОтветить на тему  [ Сообщений: 4 ] 
Торрент файл
Размер: 5.59 GB • Зарегистрирован: 5 лет 5 месяцев • Статус: Проверено
Скачан: 113 раз • Желающих скачать: 0 • Поблагодарили: 39 раз
 Раздают: 0  |  0 KB/s  ]   Качают: 0  |  0 KB/s  ] 
 Полного источника не было 5 часов 
Сообщения
 Добавлено: 2011-06-30 15:25
Top-releaser
Аватара пользователя
Стаж: 8 лет 9 месяцев
Сообщений: 479
Спасибок: 20187
Лайков: 16
Не грози южному централу, попивая сок у себя в квартале

Don't Be a Menace to South Central While Drinking Your Juice in the Hood

Изображение


Год выпуска: 1996
Страна: Изображение США
Слоган: «Finally, the movie that proves that Justice isn't always Poetic, Jungle Fever isn't always pretty, and Higher Learning can be a waste of time.»
Жанр: Комедия, криминал
Продолжительность: 01:29:26
Перевод: Профессиональный (многоголосый закадровый), Авторский (одноголосый закадровый), Оригинал
Cубтитры: Русские (Goblin), Русские (цензура)

Режиссёр: Пэрис Барклай / Paris Barclay

В ролях: Шон Уайанс, Марлон Уайанс, Трэйси Черелл Джонс, Крис Спенсер, Сули МакКалло, Даррел Хит, Хелен Мартин, Айзиа Барнс, Ламард Дж. Тейт, Кинен Айвори Уайанс

Описание: Молодой афроамериканец по прозвищу Пепельница переезжает в Лос-Анджелес со своим отцом и бабушкой. Пепельница гордится тем, что они с отцом выглядят ровесниками, это, по его мнению, «очень круто». Гордится он и своей бабушкой, которая в свои-то преклонные годы покуривает и не стесняется крепких словечек.

Вскоре Пепельница знакомится со своим кузеном по прозвищу Цепной Пес. Этот парень — гангстер, в его личном арсенале не только пистолеты и автомат, но и термоядерная боеголовка — «для самозащиты». Пепельница должен выбрать свой дальнейший путь в жизни: он может быть «просто хорошим чернокожим» или стать «опасным чернокожим», примкнув к банде своего кузена.


Качество: BDRip 720p
Формат: MKV

Видео: 1280x720 at 23.976 fps, x.264@L4.1, ~5526 kbps avg

Аудио 1: 48 kHz, AC3, 3/2 (L,C,R,l,r) + LFE ch, ~384.00 kbps avg Многоголосый закадровый, West Video
Аудио 2: 48 kHz, AC3, 3/2 (L,C,R,l,r) + LFE ch, ~384.00 kbps avg Многоголосый закадровый, West Video (переиздание)
Аудио 3: 48 kHz, AC3, 2/0 (L,R) ch, ~192.00 kbps avg Ukrainian
Аудио 4: 48 kHz, AC3, 3/2 (L,C,R,l,r) + LFE ch, ~640.00 kbps avg Одноголосый закадровый, Д.Пучков "Goblin"
Аудио 5: 48 kHz, AC3, 3/2 (L,C,R,l,r) + LFE ch, ~640.00 kbps avg Одноголосый закадровый, П.Санаев "Поздний перевод"
Аудио 6: 48 kHz, AC3, 3/2 (L,C,R,l,r) + LFE ch, ~384.00 kbps avg Одноголосый закадровый, П.Санаев "Ранний перевод"
Аудио 7: 48 kHz, AC3, 2/0 (L,R) ch, ~192.00 kbps avg Одноголосый закадровый, А.Кашкин
Аудио 8: 48 kHz, AC3, 3/2 (L,C,R,l,r) + LFE ch, ~640.00 kbps avg English
Изображение
DVDInfo

Общее
Уникальный идентификатор : 207264920617721743135202795944835681780 (0x9BEDC58E6289BA06A55EEA005EEE0DF4)
Полное имя : C:\Users\Домашний\Desktop\Ne Grozi Ujnomu Centralu.1996.720р.mkv
Формат : Matroska
Размер файла : 5,59 Гбайт
Продолжительность : 1 ч. 29 м.
Общий поток : 8949 Кбит/сек
Название фильма : Don't Be a Menace to South Central While Drinking Your Juice in the Hood (1996) - Release for HDCLUB
Дата кодирования : UTC 2011-06-27 22:14:14
Программа кодирования : mkvmerge v3.4.0 ('Rapunzel') built on May 15 2010 09:38:20
Библиотека кодирования : libebml v0.8.0 + libmatroska v0.9.0

Видео
Идентификатор : 1
Формат : AVC
Формат/Информация : Advanced Video Codec
Профиль формата : High@L4.1
Параметр CABAC формата : Да
Параметр ReFrames формата : 9 кадры
Идентификатор кодека : V_MPEG4/ISO/AVC
Продолжительность : 1 ч. 29 м.
Битрейт : 5526 Кбит/сек
Ширина : 1280 пикс.
Высота : 720 пикс.
Соотношение сторон : 16:9
Частота кадров : 23,976 кадр/сек
Цветовое пространство : YUV
Подвыборка цветности : 4:2:0
Битовая глубина : 8 бит
Тип развёртки : Прогрессивная
Бит/(Пиксели*Кадры) : 0.250
Размер потока : 3,32 Гбайт (59%)
Заголовок : Release for HDCLUB
Библиотека кодирования : x264 core 115 r2008 4c552d8
Настройки программы : cabac=1 / ref=9 / deblock=1:-3:-3 / analyse=0x3:0x133 / me=umh / subme=10 / psy=1 / psy_rd=1.20:0.00 / mixed_ref=1 / me_range=24 / chroma_me=1 / trellis=2 / 8x8dct=1 / cqm=0 / deadzone=21,11 / fast_pskip=1 / chroma_qp_offset=-2 / threads=6 / sliced_threads=0 / nr=0 / decimate=1 / interlaced=0 / bluray_compat=0 / constrained_intra=0 / bframes=8 / b_pyramid=2 / b_adapt=2 / b_bias=0 / direct=3 / weightb=1 / open_gop=0 / weightp=2 / keyint=250 / keyint_min=23 / scenecut=40 / intra_refresh=0 / rc_lookahead=40 / rc=2pass / mbtree=1 / bitrate=5526 / ratetol=1.0 / qcomp=0.60 / qpmin=0 / qpmax=69 / qpstep=4 / cplxblur=20.0 / qblur=0.5 / ip_ratio=1.40 / aq=2:1.10
Язык : English

Аудио #1
Идентификатор : 2
Формат : AC-3
Формат/Информация : Audio Coding 3
Расширение режима : CM (complete main)
Идентификатор кодека : A_AC3
Продолжительность : 1 ч. 29 м.
Вид битрейта : Постоянный
Битрейт : 384 Кбит/сек
Канал(ы) : 6 канала(ов)
Расположение каналов : Front: L C R, Side: L R, LFE
Частота : 48,0 КГц
Битовая глубина : 16 бит
Метод сжатия : С потерями
Размер потока : 246 Мбайт (4%)
Заголовок : AC3 5.1 @ 384 kbps - Многоголосый закадровый, West Video
Язык : Russian

Аудио #2
Идентификатор : 3
Формат : AC-3
Формат/Информация : Audio Coding 3
Расширение режима : CM (complete main)
Идентификатор кодека : A_AC3
Продолжительность : 1 ч. 29 м.
Вид битрейта : Постоянный
Битрейт : 384 Кбит/сек
Канал(ы) : 6 канала(ов)
Расположение каналов : Front: L C R, Side: L R, LFE
Частота : 48,0 КГц
Битовая глубина : 16 бит
Метод сжатия : С потерями
Размер потока : 246 Мбайт (4%)
Заголовок : AC3 5.1 @ 384 kbps - Многоголосый закадровый, West Video (переиздание)
Язык : Russian

Аудио #3
Идентификатор : 4
Формат : AC-3
Формат/Информация : Audio Coding 3
Расширение режима : CM (complete main)
Идентификатор кодека : A_AC3
Продолжительность : 1 ч. 29 м.
Вид битрейта : Постоянный
Битрейт : 192 Кбит/сек
Канал(ы) : 2 канала(ов)
Расположение каналов : Front: L R
Частота : 48,0 КГц
Битовая глубина : 16 бит
Метод сжатия : С потерями
Размер потока : 123 Мбайт (2%)
Заголовок : AC3 2.0 @ 192 kbps - Многоголосый закадровый, ICTV
Язык : Ukrainian

Аудио #4
Идентификатор : 5
Формат : AC-3
Формат/Информация : Audio Coding 3
Расширение режима : CM (complete main)
Идентификатор кодека : A_AC3
Продолжительность : 1 ч. 29 м.
Вид битрейта : Постоянный
Битрейт : 640 Кбит/сек
Канал(ы) : 6 канала(ов)
Расположение каналов : Front: L C R, Side: L R, LFE
Частота : 48,0 КГц
Битовая глубина : 16 бит
Метод сжатия : С потерями
Размер потока : 409 Мбайт (7%)
Заголовок : AC3 5.1 @ 640 kbps - Одноголосый закадровый, Д.Пучков "Goblin"
Язык : Russian

Аудио #5
Идентификатор : 6
Формат : AC-3
Формат/Информация : Audio Coding 3
Расширение режима : CM (complete main)
Идентификатор кодека : A_AC3
Продолжительность : 1 ч. 29 м.
Вид битрейта : Постоянный
Битрейт : 640 Кбит/сек
Канал(ы) : 6 канала(ов)
Расположение каналов : Front: L C R, Side: L R, LFE
Частота : 48,0 КГц
Битовая глубина : 16 бит
Метод сжатия : С потерями
Размер потока : 409 Мбайт (7%)
Заголовок : AC3 5.1 @ 640 kbps - Одноголосый закадровый, П.Санаев "Поздний перевод"
Язык : Russian

Аудио #6
Идентификатор : 7
Формат : AC-3
Формат/Информация : Audio Coding 3
Расширение режима : CM (complete main)
Идентификатор кодека : A_AC3
Продолжительность : 1 ч. 29 м.
Вид битрейта : Постоянный
Битрейт : 384 Кбит/сек
Канал(ы) : 6 канала(ов)
Расположение каналов : Front: L C R, Side: L R, LFE
Частота : 48,0 КГц
Битовая глубина : 16 бит
Метод сжатия : С потерями
Размер потока : 246 Мбайт (4%)
Заголовок : AC3 5.1 @ 384 kbps - Одноголосый закадровый, П.Санаев "Ранний перевод"
Язык : Russian

Аудио #7
Идентификатор : 8
Формат : AC-3
Формат/Информация : Audio Coding 3
Расширение режима : CM (complete main)
Идентификатор кодека : A_AC3
Продолжительность : 1 ч. 29 м.
Вид битрейта : Постоянный
Битрейт : 192 Кбит/сек
Канал(ы) : 2 канала(ов)
Расположение каналов : Front: L R
Частота : 48,0 КГц
Битовая глубина : 16 бит
Метод сжатия : С потерями
Размер потока : 123 Мбайт (2%)
Заголовок : AC3 2.0 @ 192 kbps - Одноголосый закадровый, А.Кашкин
Язык : Russian

Аудио #8
Идентификатор : 9
Формат : AC-3
Формат/Информация : Audio Coding 3
Расширение режима : CM (complete main)
Идентификатор кодека : A_AC3
Продолжительность : 1 ч. 29 м.
Вид битрейта : Постоянный
Битрейт : 640 Кбит/сек
Канал(ы) : 6 канала(ов)
Расположение каналов : Front: L C R, Side: L R, LFE
Частота : 48,0 КГц
Битовая глубина : 16 бит
Метод сжатия : С потерями
Задержка видео : 1 с. 1 мс.
Размер потока : 409 Мбайт (7%)
Заголовок : AC3 5.1 @ 640 kbps
Язык : English

Текст #1
Идентификатор : 10
Формат : UTF-8
Идентификатор кодека : S_TEXT/UTF8
Идентификатор кодека/Информация : UTF-8 Plain Text
Заголовок : Goblin
Язык : Russian

Текст #2
Идентификатор : 11
Формат : UTF-8
Идентификатор кодека : S_TEXT/UTF8
Идентификатор кодека/Информация : UTF-8 Plain Text
Заголовок : Цензура
Язык : Russian

Меню
00:00:00.000 : en:00:00:00.000
00:09:19.025 : en:00:09:19.025
00:12:44.998 : en:00:12:44.998
00:19:00.339 : en:00:19:00.339
00:26:09.735 : en:00:26:09.735
00:31:05.797 : en:00:31:05.797
00:36:35.460 : en:00:36:35.460
00:40:58.489 : en:00:40:58.489
00:48:38.415 : en:00:48:38.415
00:53:32.476 : en:00:53:32.476
00:56:08.465 : en:00:56:08.465
01:02:25.108 : en:01:02:25.108
01:09:05.341 : en:01:09:05.341
01:12:58.040 : en:01:12:58.040
01:17:27.142 : en:01:17:27.142

Свернуть
Скриншоты

Изображение
Изображение
Изображение
Изображение
Изображение
Свернуть

Раздача:

Изображение
_________________
Изображение
Изображение
Не в сети
Профиль  
 Добавлено: 2011-09-04 23:57 (спустя 2 месяца 4 дня)
Аватара пользователя
Стаж: 8 лет 7 месяцев
Сообщений: 51
Раздайте христа ради) :)
Не в сети
Профиль  
 Добавлено: 2013-02-16 22:09 (спустя 1 год 5 месяцев)
Стаж: 9 лет
Сообщений: 13
есть ли ещё добры молодцы, дабы раздать сие творение?
Не в сети
Профиль  
 Добавлено: 2014-11-26 19:41 (спустя 1 год 9 месяцев)
Стаж: 6 лет 9 месяцев
Сообщений: 23
Спасибок: 86
Раздайте, пожалуйста.
Не в сети
Профиль  
Начать новую темуОтветить на тему  [ Сообщений: 4 ] 
Вы не можете начинать темы
Вы не можете отвечать на сообщения
Вы не можете редактировать свои сообщения
Вы не можете удалять свои сообщения