Правила форума

  • В этом разделе создание новых тем Запрещено.
  • Для создания новых тем пользуйтесь Корневым разделом DVD и HD фильмы.
Начать новую темуОтветить на тему  [ Сообщений: 3 ] 
Торрент файл
Размер: 4.68 GB • Зарегистрирован: 5 лет 1 месяц • Статус: Проверено
Скачан: 14 раз • Желающих скачать: 0 • Поблагодарили: 6 раз
 Раздают: 0  |  0 KB/s  ]   Качают: 0  |  0 KB/s  ] 
 Полного источника не было 3 года 2 месяца 
Сообщения
 Добавлено: 2011-10-16 09:07
Аватара пользователя
Стаж: 7 лет 2 месяца
Сообщений: 7167
Спасибок: 81999
Лайков: 2438
Не называй меня малышкой

Barb Wire

Изображение


Год выпуска: 1996
Страна: Изображение США
Слоган: «No laws. No limits. No turning back.»
Жанр: Фэнтези, боевик
Продолжительность: 01:38:19
Перевод: Профессиональный (многоголосый закадровый)

Режиссёр: Дэвид Хоган
В ролях: Памела Андерсон Ли, Темуера Моррисон, Виктория Роуэлл, Джек Ноузуорти, Ксандер Беркли, Удо Кир , Андре Рози Браун, Николас Уорт, Клинт Хауард, Дженнифер Бэнко, Стив Рэйлсбэк, Эдриана Александер, Ванесса Ли Эшер, Тони Билл, Алекс Букстон
Описание: Америка охвачена второй гражданской войной. Единственным нейтральным городом остается Стил Харбор. А самое популярное место в Стил Харборе — гриль-бар «Дубовая голова». Имя его владелицы, красавицы по кличке «колючая проволока» окружено легендами. Когда эмоции в ее баре перехлестывают через край, она лично исполняет обязанности вышибалы, а вот справиться с ней не удавалось еще никому. Единственный человек о котором она заботилась — ее слепой младший брат Чарли.

Но вот в городе появляется Аксель Худ. Он должен переправить в Канаду доктора Тайру Армстронг, чтобы предупредить Комиссию по перемирию о страшном биологическом оружии, которое может повлечь за собой глобальную катастрофу. Акселю нужна помощь, и он знает, что оказать ее может лишь «Колючая проволока»….


Качество: BDRip 720p
Формат: MKV
Видео кодек: H264 (AVC)
Аудио кодек: AC3 , DTS
Видео: 1 280×688, 4 851 Кбит/с, 23.976 fps
Аудио #1: 48Hz, 6 ch, 448 Кбит/с [Профессиональный (многоголосый закадровый)]
Аудио #2: 48Hz, 6 ch, 1 510 Кбит/с [Оригинальная звуковая дорожка]
Субтитры: Английские
Изображение

Скриншоты
Изображение
Изображение
Изображение
Изображение
Изображение
Изображение
Изображение
Изображение
Изображение
Свернуть
MediaInfo
Общее
Уникальный идентификатор : 188860987745413215118135812666960444569 (0x8E154D9C0F7CC1A3802560FC6FA4FC99)
Полное имя : Не называй меня малышкой.BDRip720p.mkv
Формат : Matroska
Размер файла : 4,68 Гбайт
Продолжительность : 1 ч. 38 м.
Общий поток : 6809 Кбит/сек
Дата кодирования : UTC 2011-02-11 18:09:15
Программа кодирования : mkvmerge v4.0.0
Библиотека кодирования : libebml v1.0.0 + libmatroska v1.0.0

Видео
Идентификатор : 1
Формат : AVC
Формат/Информация : Advanced Video Codec
Профиль формата : High@L3.1
Параметр CABAC формата : Да
Параметр ReFrames формата : 5 кадров
Идентификатор кодека : V_MPEG4/ISO/AVC
Продолжительность : 1 ч. 38 м.
Битрейт : 4851 Кбит/сек
Ширина : 1280 пикс.
Высота : 688 пикс.
Соотношение сторон : 1,860
Частота кадров : 23,976 кадр/сек
Цветовое пространство : YUV
Подвыборка цветности : 4:2:0
Битовая глубина : 8 бит
Тип развёртки : Прогрессивная
Бит/(Пиксели*Кадры) : 0.230
Размер потока : 3,24 Гбайт (69%)
Библиотека кодирования : x264 core 113 r1884 7313bb5
Настройки программы : cabac=1 / ref=5 / deblock=1:0:0 / analyse=0x3:0x113 / me=umh / subme=7 / psy=1 / psy_rd=1.00:0.00 / mixed_ref=1 / me_range=16 / chroma_me=1 / trellis=1 / 8x8dct=1 / cqm=0 / deadzone=21,11 / fast_pskip=0 / chroma_qp_offset=-2 / threads=6 / sliced_threads=0 / nr=0 / decimate=1 / interlaced=0 / constrained_intra=0 / bframes=3 / b_pyramid=2 / b_adapt=1 / b_bias=0 / direct=1 / weightb=1 / open_gop=0 / weightp=2 / keyint=250 / keyint_min=23 / scenecut=40 / intra_refresh=0 / rc_lookahead=40 / rc=2pass / mbtree=1 / bitrate=4851 / ratetol=1.0 / qcomp=0.60 / qpmin=0 / qpmax=69 / qpstep=4 / cplxblur=20.0 / qblur=0.5 / ip_ratio=1.40 / aq=1:1.00
Язык : English

Аудио #1
Идентификатор : 2
Формат : AC-3
Формат/Информация : Audio Coding 3
Расширение режима : CM (complete main)
Идентификатор кодека : A_AC3
Продолжительность : 1 ч. 38 м.
Вид битрейта : Постоянный
Битрейт : 448 Кбит/сек
Каналы : 6 каналов
Расположение каналов : Front: L C R, Side: L R, LFE
Частота : 48,0 КГц
Битовая глубина : 16 бит
Метод сжатия : С потерями
Размер потока : 315 Мбайт (7%)
Язык : Russian

Аудио #2
Идентификатор : 3
Формат : DTS
Формат/Информация : Digital Theater Systems
Идентификатор кодека : A_DTS
Продолжительность : 1 ч. 38 м.
Вид битрейта : Постоянный
Битрейт : 1510 Кбит/сек
Каналы : 6 каналов
Расположение каналов : Front: L C R, Side: L R, LFE
Частота : 48,0 КГц
Битовая глубина : 24 бит
Метод сжатия : С потерями
Размер потока : 1,04 Гбайт (22%)
Язык : English

Текст
Идентификатор : 4
Формат : UTF-8
Идентификатор кодека : S_TEXT/UTF8
Идентификатор кодека/Информация : UTF-8 Plain Text
Язык : English
Свернуть
«3500 кинорецензий»
Фантастический комикс

Этот фильм, несмотря на занимательный антураж фантастического комикса об Америке XXI века, где идёт вторая Гражданская война, с треском провалился в прокате и был шестикратно представлен на «Золотую малину» (причём Памела Андерсон, пришедшая в кино из телесериала «Спасатели Малибу», удостоилась этой позорной премии в номинации новых звёзд). Но всё равно «Колючая проволока» умудрилась стать «культовой молодёжной классикой», как и похожая на неё, такая же придурочная и воинственная лента «Девушка-танк».

Образ «лихой супервумен» Барбары Копецки по прозвищу Барб Уайр (Колючая Проволока), агрессивной женщины с мощным эротическим зарядом и не менее впечатляющими телесными формами, явился словно сублимацией подавленных желаний подростков да и многих из тех, кто значительно старше возраста потери юношеской невинности. Глупая кукла Барби, которая поменяла свою физическую субтильность на роскошный бюст, а подразумеваемую девичью скромность и изнеженность — на открытую женскую сексуальность, так и не утратила собственной склонности быть «тупой и ещё тупее». Но будто бы по этой причине столь бездушная и роботоподобная Love Machine, которая покорно выполняет прихоти взирающих на неё с нескрываемым сладострастием, как раз и влечёт к себе миллионы мужчин.

1997
Свернуть
 rotametr нравится это.
Не в сети
Профиль  
 Добавлено: 2012-07-24 14:00 (спустя 9 месяцев)
Стаж: 4 года 8 месяцев
Сообщений: 4
Раздайте фильм чуть чуть осталось :'( 95.8% закачено уже
Не в сети
Профиль  
 Добавлено: 2012-07-26 18:11 (спустя 2 дня 4 часа)
Стаж: 4 года 8 месяцев
Сообщений: 4
помогите докачать плииииз :(
Не в сети
Профиль  
Начать новую темуОтветить на тему  [ Сообщений: 3 ] 
Вы не можете начинать темы
Вы не можете отвечать на сообщения
Вы не можете редактировать свои сообщения
Вы не можете удалять свои сообщения