Правила форума

  • В этом разделе создание новых тем Запрещено.
  • Для создания новых тем пользуйтесь Корневым разделом DVD и HD фильмы.
Начать новую темуОтветить на тему  [ 1 сообщение ] 
Торрент файл
Размер: 9.91 GB • Зарегистрирован: 5 лет 8 месяцев • Статус: Проверено
Скачан: 18 раз • Желающих скачать: 0 • Поблагодарили: 4 раза
 Раздают: 1  |  0 KB/s  ]   Качают: 0  |  0 KB/s  ] 
Сообщения
 Добавлено: 2011-03-18 17:07
Top-releaser
Аватара пользователя
Стаж: 7 лет 3 месяца
Возраст: 25
Сообщений: 1036
Спасибок: 2694
Лайков: 9
Не оглядывайся / Don't Look Back / Ne te retourne pas

Изображение



Год выхода: 2009
Страна: Франция, Италия, Бельгия, Люксембург

Жанр: триллер, драма
Продолжительность: 01:50:03
Перевод: Дублированное [лицензия]

Режиссер: Марина де Ван
Сценарий: Жак Акшоти, Марина де Ван
Продюсер: Патрик Собельман, Кончита Айрольди, Себастьен Деллуа
Оператор: Доминик Колен

В ролях: Софи Марсо, Моника Беллуччи, Андреа Ди Стефано, Брижит Катийон, Сильви Гранотье, Аугусто Дзукки, Джованни Франзони

Описание: Жанна — писательница, замужем, имеет двоих детей. Она начинает замечать тревожащие её изменения в доме. Её тело начинает меняться. Но никто вокруг неё, кажется, этого не замечает. Семья списывает страхи Жанны на стресс, связанный с выходом её новой книги, но сама она понимает, что что-то другое, более глубокое и волнующее имеет место быть.

Увиденное на фотографии побуждает Жанну отправится в Италию на поиски одной женщины. И там, преобразовавшись в другую женщину, РозаМарию, она наконец-то поймёт странный секрет её истинной сущности.


KinoPoisk.ru: 6.319
IMDb.com: 5.9/10

pаздача группы:Изображение

Качество: BDRip 1080p R5
Формат: MKV
Видео: MPEG4 Video (H264) 1920x822 23.98fps
Аудио 1: Russian: DTS, 1510 kb/s (6 ch)
Аудио 2: French: AC3, 448 kb/s (6 ch)

Изображение

MediaInfo
General
Unique ID : 184042571397688038583228755656570390767 (0x8A754F578D3DEC2780DC1C453AB948EF)
Complete name : G:\ReLease\Don't.Look.Back.1080p..mkv
Format : Matroska
File size : 9.91 GiB
Duration : 1h 50mn
Overall bit rate : 12.9 Mbps
Encoded date : UTC 2010-07-01 19:17:52
Writing application : mkvmerge v3.4.0 ('Rapunzel') сборка от May 15 2010 09:38:20
Writing library : libebml v0.8.0 + libmatroska v0.9.0

Video
ID : 1
Format : AVC
Format/Info : Advanced Video Codec
Format profile : High@L4.1
Format settings, CABAC : Yes
Format settings, ReFrames : 4 frames
Format settings, GOP : M=2, N=3
Codec ID : V_MPEG4/ISO/AVC
Duration : 1h 50mn
Bit rate : 10.9 Mbps
Width : 1 920 pixels
Height : 822 pixels
Display aspect ratio : 2.35:1
Frame rate : 23.976 fps
Color space : YUV
Chroma subsampling : 4:2:0
Bit depth : 8 bits
Scan type : Progressive
Bits/(Pixel*Frame) : 0.289
Stream size : 8.21 GiB (83%)
Writing library : x264 core 68 r1179M 96e2229
Encoding settings : cabac=1 / ref=4 / deblock=1:-3:-3 / analyse=0x3:0x133 / me=umh / subme=9 / psy_rd=1.1:0.0 / mixed_ref=1 / me_range=32 / chroma_me=1 / trellis=2 / 8x8dct=1 / cqm=0 / deadzone=21,11 / chroma_qp_offset=-4 / threads=24 / nr=0 / decimate=1 / mbaff=0 / bframes=4 / b_pyramid=1 / b_adapt=2 / b_bias=0 / direct=3 / wpredb=1 / keyint=250 / keyint_min=25 / scenecut=40 / rc=2pass / bitrate=10930 / ratetol=1.0 / qcomp=0.60 / qpmin=10 / qpmax=51 / qpstep=4 / cplxblur=20.0 / qblur=0.5 / ip_ratio=1.40 / pb_ratio=1.30 / aq=1:0.90
Language : English

Audio #1
ID : 2
Format : DTS
Format/Info : Digital Theater Systems
Codec ID : A_DTS
Duration : 1h 50mn
Bit rate mode : Constant
Bit rate : 1 510 Kbps
Channel(s) : 6 channels
Channel positions : Front: L C R, Side: L R, LFE
Sampling rate : 48.0 KHz
Bit depth : 24 bits
Compression mode : Lossy
Stream size : 1.16 GiB (12%)
Title : DTS 5.1 @ 1536 kbps - Дублированный
Language : Russian

Audio #2
ID : 3
Format : AC-3
Format/Info : Audio Coding 3
Mode extension : CM (complete main)
Codec ID : A_AC3
Duration : 1h 50mn
Bit rate mode : Constant
Bit rate : 448 Kbps
Channel(s) : 6 channels
Channel positions : Front: L C R, Side: L R, LFE
Sampling rate : 48.0 KHz
Bit depth : 16 bits
Compression mode : Lossy
Stream size : 353 MiB (3%)
Title : AC3 5.1 @ 448 kbps
Language : French


Свернуть
Скриншоты
Изображение
Изображение
Изображение
Изображение
Изображение
Свернуть
Не в сети
Профиль  
Начать новую темуОтветить на тему  [ 1 сообщение ] 
Вы не можете начинать темы
Вы не можете отвечать на сообщения
Вы не можете редактировать свои сообщения
Вы не можете удалять свои сообщения