Правила форума

  • В этом разделе создание новых тем Запрещено.
  • Для создания новых тем пользуйтесь Корневым разделом DVD и HD фильмы.
Начать новую темуОтветить на тему  [ Сообщений: 5 ] 
Торрент файл
Размер: 5.55 GB • Зарегистрирован: 5 лет 4 месяца • Статус: Проверено
Скачан: 103 раза • Желающих скачать: 0 • Поблагодарили: 20 раз
 Раздают: 0  |  0 KB/s  ]   Качают: 0  |  0 KB/s  ] 
 Полного источника не было 1 год 10 месяцев 
Сообщения
 Добавлено: 2011-07-10 00:00
Top-releaser
Аватара пользователя
Стаж: 8 лет 9 месяцев
Сообщений: 479
Спасибок: 20187
Лайков: 16
Не отпускай меня

Never Let Me Go

Изображение


Год выпуска: 2010
Страна: Изображение США, Изображение Великобритания; DNA Films
Жанр: Драма, мелодрама
Продолжительность: 01:44:02
Перевод: Профессиональный (многоголосый закадровый) R5, Оригинал
Cубтитры: русские, английские

Режиссёр: Марк Романек / Mark Romanek

В ролях: Кэри Маллиган, Эндрю Гарфилд, Кира Найтли, Иззи Мейкл-Смолл, Чарли Роу, Элла Пурнелла, Шарлотта Рэмплинг, Салли Хокинс, Кейт Боуc Ренна, Ханна Шарп

Описание: Троица главных героев выросла в интернате и была лишена любого контакта с окружающим миром. Но со временем друзья узнают, что они на самом деле — клоны, выращиваемые для донорства органов.

Качество: BDRip 720p R5
Формат: MKV

Видео: AVC,1280x546,5383 kb/s,23.976 fps

Аудио 1: 48 kHz, DTS, 3/2 (L,C,R,l,r) + LFE ch, ~768.00 kbps avg (Многоголосый закадровый)
Аудио 2: 48 kHz, DTS, 3/2 (L,C,R,l,r) + LFE ch, ~1536.00 kbps avg (Оригинал)
Изображение

Изображение
MediaInfo

Общее
Уникальный идентификатор : 197107106882067531817755054662864158125 (0x944972AC2AEFB7C2A7DB6E8215093DAD)
Полное имя : C:\Users\Домашний\Desktop\Ne otpuskaj menja.2010.BDRip.720[nntt].mkv
Формат : Matroska
Размер файла : 5,55 Гбайт
Продолжительность : 1 ч. 43 м.
Общий поток : 7663 Кбит/сек
Название фильма : -Talian-
Дата кодирования : UTC 2011-07-09 09:51:43
Программа кодирования : mkvmerge v3.3.0 ('Language') сборка от May 14 2010 17:11:50
Библиотека кодирования : libebml v0.8.0 + libmatroska v0.9.0

Видео
Идентификатор : 1
Формат : AVC
Формат/Информация : Advanced Video Codec
Профиль формата : High@L4.1
Параметр CABAC формата : Да
Параметр ReFrames формата : 8 кадры
Идентификатор кодека : V_MPEG4/ISO/AVC
Продолжительность : 1 ч. 43 м.
Битрейт : 5383 Кбит/сек
Ширина : 1280 пикс.
Высота : 546 пикс.
Соотношение сторон : 2,35:1
Частота кадров : 23,976 кадр/сек
Цветовое пространство : YUV
Подвыборка цветности : 4:2:0
Битовая глубина : 8 бит
Тип развёртки : Прогрессивная
Бит/(Пиксели*Кадры) : 0.321
Размер потока : 3,80 Гбайт (68%)
Заголовок : Never Let Me Go 2010 720p BluRay DD5 1 x264-HIDt
Библиотека кодирования : x264 core 112 r1834 a51816a
Настройки программы : cabac=1 / ref=8 / deblock=1:-3:-3 / analyse=0x3:0x113 / me=tesa / subme=10 / psy=1 / psy_rd=1.00:0.00 / mixed_ref=1 / me_range=32 / chroma_me=1 / trellis=2 / 8x8dct=1 / cqm=1 / deadzone=21,11 / fast_pskip=0 / chroma_qp_offset=-2 / threads=12 / sliced_threads=0 / nr=0 / decimate=1 / interlaced=0 / constrained_intra=0 / bframes=6 / b_pyramid=2 / b_adapt=2 / b_bias=0 / direct=3 / weightb=1 / open_gop=0 / weightp=2 / keyint=250 / keyint_min=23 / scenecut=40 / intra_refresh=0 / rc_lookahead=40 / rc=2pass / mbtree=1 / bitrate=5383 / ratetol=1.0 / qcomp=0.60 / qpmin=3 / qpmax=51 / qpstep=4 / cplxblur=20.0 / qblur=0.5 / ip_ratio=1.40 / aq=2:0.80
Язык : English

Аудио #1
Идентификатор : 2
Формат : DTS
Формат/Информация : Digital Theater Systems
Идентификатор кодека : A_DTS
Продолжительность : 1 ч. 43 м.
Вид битрейта : Постоянный
Битрейт : 755 Кбит/сек
Канал(ы) : 6 канала(ов)
Расположение каналов : Front: L C R, Side: L R, LFE
Частота : 48,0 КГц
Битовая глубина : 24 бит
Метод сжатия : С потерями
Размер потока : 560 Мбайт (10%)
Заголовок : MVO-Blu-ray
Язык : Russian

Аудио #2
Идентификатор : 3
Формат : DTS
Формат/Информация : Digital Theater Systems
Идентификатор кодека : A_DTS
Продолжительность : 1 ч. 43 м.
Вид битрейта : Постоянный
Битрейт : 1510 Кбит/сек
Канал(ы) : 6 канала(ов)
Расположение каналов : Front: L C R, Side: L R, LFE
Частота : 48,0 КГц
Битовая глубина : 24 бит
Метод сжатия : С потерями
Размер потока : 1,09 Гбайт (20%)
Заголовок : Original
Язык : English

Текст #1
Идентификатор : 4
Формат : UTF-8
Идентификатор кодека : S_TEXT/UTF8
Идентификатор кодека/Информация : UTF-8 Plain Text
Заголовок : Sub
Язык : Russian

Текст #2
Идентификатор : 5
Формат : UTF-8
Идентификатор кодека : S_TEXT/UTF8
Идентификатор кодека/Информация : UTF-8 Plain Text
Заголовок : Sub
Язык : English

Меню
00:00:00.000 : :Chapter 01
00:04:45.243 : :Chapter 02
00:07:25.486 : :Chapter 03
00:11:40.783 : :Chapter 04
00:16:06.006 : :Chapter 05
00:18:33.821 : :Chapter 06
00:22:25.427 : :Chapter 07
00:25:40.872 : :Chapter 08
00:29:15.962 : :Chapter 09
00:32:19.145 : :Chapter 10
00:34:55.009 : :Chapter 11
00:38:09.745 : :Chapter 12
00:42:20.788 : :Chapter 13
00:47:23.340 : :Chapter 14
00:50:55.510 : :Chapter 15
00:53:55.649 : :Chapter 16
00:55:57.020 : :Chapter 17
00:59:56.134 : :Chapter 18
01:04:56.142 : :Chapter 19
01:10:11.165 : :Chapter 20
01:12:34.683 : :Chapter 21
01:15:10.881 : :Chapter 22
01:18:09.893 : :Chapter 23
01:19:24.050 : :Chapter 24
01:21:09.698 : :Chapter 25
01:26:13.960 : :Chapter 26
01:32:37.134 : :Chapter 27
01:36:45.382 : :Chapter 28

Свернуть
Скриншоты
Изображение
Изображение
Изображение
Изображение
Изображение
Свернуть

Раздача:

Изображение
_________________
Изображение
Изображение
Не в сети
Профиль  
 Добавлено: 2011-07-13 19:31 (спустя 3 дня)
Аватара пользователя
Стаж: 7 лет 9 месяцев
Сообщений: 187
Лайков: 9
ну как фильм?
Не в сети
Профиль  
 Добавлено: 2011-07-13 21:40 (спустя 2 часа 9 минут)
Аватара пользователя
Стаж: 7 лет 9 месяцев
Сообщений: 187
Лайков: 9
мда, сложный фильм...
Не в сети
Профиль  
 Добавлено: 2011-08-02 22:59 (спустя 20 дней)
Аватара пользователя
Стаж: 8 лет 7 месяцев
Возраст: 27
Сообщений: 5601
Спасибок: 380
Лайков: 75
я спустя 20-30 минут после начал просмотра только и думал: а че вы не валите?! даже не охраняет никто! че во всем мире такой пипец, что негде и укрыться от медиков??
Неужели люди до такого дойдут,что будут спасать одну жизнь ценой другой? а смысл?? Вспомнил короче детство своё, школу, юность, любовь, разрывы. Поразмыслил о бренности своего бытия и чувстве постоянного уныния, которое все меньше вещей могут развеять и понял, что в жизни всю хуже может быть, чем в кино и лучше почаще смотреть комедии. Нельзя постоянно задумываться над неразрешимыми, философскими вопросами. я всё.
Не в сети
Профиль  
 Добавлено: 2011-08-22 01:26 (спустя 19 дней)
Стаж: 6 лет 11 месяцев
Возраст: 33
Сообщений: 13
уг
Не в сети
Профиль  
Начать новую темуОтветить на тему  [ Сообщений: 5 ] 
Вы не можете начинать темы
Вы не можете отвечать на сообщения
Вы не можете редактировать свои сообщения
Вы не можете удалять свои сообщения