Правила форума

  • В этом разделе создание новых тем Запрещено.
  • Для создания новых тем пользуйтесь Корневым разделом DVD и HD фильмы.
Начать новую темуОтветить на тему  [ Сообщений: 5 ] 
Торрент файл
Размер: 13.63 GB • Зарегистрирован: 5 лет 5 месяцев • Статус: Проверено
Скачан: 70 раз • Желающих скачать: 0 • Поблагодарили: 28 раз
 Раздают: 0  |  0 KB/s  ]   Качают: 0  |  0 KB/s  ] 
 Полного источника не было 11 дней 
Сообщения
 Добавлено: 2011-06-10 10:02
Модератор в армии
Аватара пользователя
Стаж: 7 лет 8 месяцев
Возраст: 24
Сообщений: 20668
Спасибок: 7406
Лайков: 62
Изображение

Не Пойман - Не Вор / Inside Man

«Хочешь ограбить банк - спроси у нас как»

Год выпуска: 2006
Страна: Изображение
Жанр: триллер, драма, криминал
Продолжительность: 02:08:36
Перевод: Профессиональный (Полное дублирование), Профессиональный (многоголосый, закадровый), Авторский (одноголосый, закадровый) [Немалов]

Режиссер: Спайк Ли
Сценарий: Расселл Гевиртц
Продюсер: Брайан Грейзер, Джонатан Филли, Карен Кехела
Оператор: Мэттью Либатик
Композитор: Теренс Блэнчард
Художник: Винн Томас, Крис Шрайвер, Донна Бервик
Монтаж: Бэрри Александер Браун

В ролях: Дензел Вашингтон, Клайв Оуэн, Джоди Фостер, Кристофер Пламмер, Уиллем Дафо, Чиветель Эджиофор, Карлос Андрес Гомез, Ким Директор, Джеймс Рэнсон

Роли дублировали: Денис Беспалый, Анатолий Белый, Елена Соловьева, Дальвин Щербаков, Владимир Зайцев

Описание: История крутого полицейского, детектива Фрезьера, который сталкивается «на узкой дорожке» с хитрым грабителем банков Долтоном. Их противостояние выливается в напряженную драму с захватом заложников.
По мере того, как развивается эта игра в «кошки-мышки», на горизонте появляется еще одна загадочная фигура — брокер Мадалина, роль которой в разворачивающихся событиях остается до поры до времени совершенно непонятной. Мадалина вносит еще больше хаоса и нестабильности в и без того чрезвычайно хрупкую ситуацию…

Изображение 8.023 (15 922) Изображение 7.7 (97,387)

Качество: BDRip 1080p
Формат: MKV

Видео кодек: H.264
Аудио кодек: AC3, DTS

Видео: 1920x816, 23.98fps, 11626 kbps
Аудио #1: Russian(Dub): Dolby AC3, 48 KHz, 6ch, 448bps
Аудио #2: Russian(MVO): Dolby AC3, 48 KHz, 6ch, 640Kbps
Аудио #2: Russian(Немалов): DTS, 48 KHz, 6ch, 768Kbps
Аудио #3: English: DTS, 48 KHz, 6ch, 1536Kbps
Аудио #4: English(commen): Dolby AC3, 48 KHz, stereo, 192Kbps
Субтитры: Русские, Английские
NFO
Уникальный идентификатор : 202625654550180506871985128224050477186 (0x987048144FB07DB185A923A82E397882)
Полное имя : C:\Users\Александр\AppData\Local\Temp\fz3temp-1\Inside Man.mkv
Формат : Matroska
Размер файла : 219 Мбайт
Продолжительность : 2 ч. 8 м.
Общий поток : 237 Кбит/сек
Дата кодирования : UTC 2009-07-01 09:09:40
Программа кодирования : mkvmerge v2.5.3 ('Boogie') built on Mar 7 2009 15:00:41
Библиотека кодирования : libebml v0.7.7 + libmatroska v0.8.1
Обложка : Yes / Yes / Yes

Видео
Идентификатор : 1
Формат : AVC
Формат/Информация : Advanced Video Codec
Профиль формата : High@L4.0
Параметр CABAC формата : Да
Параметр ReFrames формата : 5 кадров
Идентификатор кодека : V_MPEG4/ISO/AVC
Продолжительность : 2 ч. 8 м.
Номинальный битрейт : 11,6 Мбит/сек
Ширина : 1920 пикс.
Высота : 816 пикс.
Соотношение сторон : 2,35:1
Частота кадров : 23,976 кадр/сек
Цветовое пространство : YUV
Подвыборка цветности : 4:2:0
Битовая глубина : 8 бит
Тип развёртки : Прогрессивная
Бит/(Пиксели*Кадры) : 0.310
Заголовок : Inside Man (2006)
Библиотека кодирования : x264 core 67 r1163M 3f56e27
Настройки программы : cabac=1 / ref=5 / deblock=1:-3:-3 / analyse=0x3:0x113 / me=umh / subme=9 / psy_rd=1.3:0.0 / mixed_ref=1 / me_range=64 / chroma_me=1 / trellis=2 / 8x8dct=1 / cqm=0 / deadzone=21,11 / chroma_qp_offset=-2 / threads=6 / nr=0 / decimate=0 / mbaff=0 / bframes=8 / b_pyramid=1 / b_adapt=2 / b_bias=0 / direct=3 / wpredb=1 / keyint=250 / keyint_min=25 / scenecut=40 / rc=2pass / bitrate=11626 / ratetol=1.0 / qcomp=0.60 / qpmin=10 / qpmax=51 / qpstep=4 / cplxblur=20.0 / qblur=0.5 / ip_ratio=1.40 / pb_ratio=1.30 / aq=1:0.80
Язык : English

Аудио #1
Идентификатор : 2
Формат : AC-3
Формат/Информация : Audio Coding 3
Расширение режима : CM (complete main)
Идентификатор кодека : A_AC3
Продолжительность : 2 ч. 8 м.
Вид битрейта : Постоянный
Битрейт : 448 Кбит/сек
Каналы : 6 каналов
Расположение каналов : Front: L C R, Side: L R, LFE
Частота : 48,0 КГц
Битовая глубина : 16 бит
Метод сжатия : С потерями
Размер потока : 413 Мбайт
Заголовок : AC3 5.1 448 Kbps (Dubbed)
Язык : Russian

Аудио #2
Идентификатор : 3
Формат : AC-3
Формат/Информация : Audio Coding 3
Расширение режима : CM (complete main)
Идентификатор кодека : A_AC3
Продолжительность : 2 ч. 8 м.
Вид битрейта : Постоянный
Битрейт : 640 Кбит/сек
Каналы : 6 каналов
Расположение каналов : Front: L C R, Side: L R, LFE
Частота : 48,0 КГц
Битовая глубина : 16 бит
Метод сжатия : С потерями
Размер потока : 589 Мбайт
Заголовок : AC3 5.1 640 Kbps (Mnogogolosiy)
Язык : Russian

Аудио #3
Идентификатор : 4
Формат : DTS
Формат/Информация : Digital Theater Systems
Идентификатор кодека : A_DTS
Продолжительность : 2 ч. 8 м.
Вид битрейта : Постоянный
Битрейт : 755 Кбит/сек
Каналы : 6 каналов
Расположение каналов : Front: L C R, Side: L R, LFE
Частота : 48,0 КГц
Битовая глубина : 24 бит
Метод сжатия : С потерями
Размер потока : 695 Мбайт
Заголовок : DTS 5.1 768 Kbps (Nemalov)
Язык : Russian

Аудио #4
Идентификатор : 5
Формат : DTS
Формат/Информация : Digital Theater Systems
Идентификатор кодека : A_DTS
Продолжительность : 2 ч. 8 м.
Вид битрейта : Постоянный
Битрейт : 1510 Кбит/сек
Каналы : 6 каналов
Расположение каналов : Front: L C R, Side: L R, LFE
Частота : 48,0 КГц
Битовая глубина : 24 бит
Метод сжатия : С потерями
Размер потока : 1,36 Гбайт
Заголовок : DTS 5.1 1536 Kbps
Язык : English

Аудио #5
Идентификатор : 6
Формат : AC-3
Формат/Информация : Audio Coding 3
Профиль формата : Dolby Digital
Расширение режима : CM (complete main)
Идентификатор кодека : A_AC3
Продолжительность : 2 ч. 8 м.
Вид битрейта : Постоянный
Битрейт : 192 Кбит/сек
Каналы : 2 канала
Расположение каналов : Front: L R
Частота : 48,0 КГц
Битовая глубина : 16 бит
Метод сжатия : С потерями
Размер потока : 177 Мбайт (81%)
Заголовок : Commentary
Язык : English

Текст #1
Идентификатор : 7
Формат : UTF-8
Идентификатор кодека : S_TEXT/UTF8
Идентификатор кодека/Информация : UTF-8 Plain Text
Язык : Russian

Текст #2
Идентификатор : 8
Формат : ASS
Идентификатор кодека : S_TEXT/ASS
Идентификатор кодека/Информация : Advanced Sub Station Alpha
Метод сжатия : Без потерь
Язык : English
Свернуть

Скриншоты
Изображение

Изображение

Изображение

Изображение

Изображение
Свернуть
_________________
Изображение
 zero52 нравится это.
Не в сети
Профиль  
 Добавлено: 2014-05-18 23:42 (спустя 2 года 11 месяцев)
Стаж: 7 лет 11 месяцев
Сообщений: 20
встаньте на раздачу плиз
Не в сети
Профиль  
 Добавлено: 2014-05-19 15:08 (спустя 15 часов)
Стаж: 7 лет 11 месяцев
Сообщений: 20
СПС ОГРОМНОЕ)
Не в сети
Профиль  
 Добавлено: 2014-05-30 14:52 (спустя 10 дней)
Ветеран NNTT.ORG
Аватара пользователя
Стаж: 8 лет 7 месяцев
Возраст: 34
Сообщений: 552
Спасибок: 501
Лайков: 81
кто смотрел ?
Не в сети
Профиль  
 Добавлено: 2014-06-09 14:14 (спустя 9 дней)
Стаж: 6 лет 10 месяцев
Сообщений: 21
фильм ахуенный!!!!!!!!!!!!!!
Не в сети
Профиль  
Начать новую темуОтветить на тему  [ Сообщений: 5 ] 
Вы не можете начинать темы
Вы не можете отвечать на сообщения
Вы не можете редактировать свои сообщения
Вы не можете удалять свои сообщения