Правила форума

  • В этом разделе создание новых тем Запрещено.
  • Для создания новых тем пользуйтесь Корневым разделом DVD и HD фильмы.
Начать новую темуОтветить на тему  [ Сообщений: 2 ] 
Торрент файл
Размер: 4.2 GB • Зарегистрирован: 4 года 5 месяцев • Статус: Проверено
Скачан: 12 раз • Желающих скачать: 0 • Поблагодарили: 10 раз
 Раздают: 0  |  0 KB/s  ]   Качают: 0  |  0 KB/s  ] 
 Полного источника не было 2 года 2 месяца 
Сообщения
 Добавлено: 2012-06-10 07:18
Top-releaser
Аватара пользователя
Стаж: 6 лет 7 месяцев
Сообщений: 2078
Спасибок: 3229
Лайков: 9
Не пойман не вор / Inside Man

Изображение


Год выпуска: 2006
Страна: США
Жанр: триллер, драма, криминал
Продолжительность: 02:08:00
Перевод: Профессиональный (полное дублирование)

Режиссёр: Спайк Ли
В ролях: Дензел Вашингтон, Клайв Оуэн, Джоди Фостер, Кристофер Пламмер, Уиллем Дафо, Чиветель Эджиофор, Карлос Андрес Гомез, Ким Директор, Джеймс Рэнсон, Берни Рейчел, Питер Герети, Виктор Количчио, Кассандра Фриман, Питер Фречетт, Джерри Вичи, Варис Ахлувалиа, Рафаэль Осорио, Родни Джексон, Родни «Медведь» Джексон, Эшли Эткинсон, Дэвид Браун
Описание: История крутого полицейского, детектива Фрезьера, который сталкивается "наузкой дорожке" с хитрым грабителем банков Долтоном. Их противостояние выливается в напряженную драму с захватом заложников.
По мере того, как развивается эта игра в «кошки-мышки», на горизонте появляется еще одна загадочная фигура — брокер Мадалина, роль которой в разворачивающихся событиях остается до поры до времени совершенно непонятной. Мадалина вносит еще больше хаоса и нестабильности в и без того чрезвычайно хрупкую ситуацию…

Раздача группы: Изображение

Качество: HD-DVDRip
Формат: MKV
Видео кодек: H.264
Аудио кодек: AC3 (Dolby Digital)
Видео: 1280x544, 23,976 fps, AVC MPEG-4 (x264) ~ 4220 kbps
Аудио #1: Russian: 48 kHz, DD5.1, 448.00 kbps avg

Знаете ли вы, что...
  • Съемки картины длились всего 39 дней. Джоди Фостер отработала свою роль еще быстрее – три недели (21 день).
  • Это четвертая совместная работа Спайка Ли и Дензела Вашингтона.
  • В конце фильма подруга персонажа Дензела Вашингтона читает книгу «Дневники Готэма», роман, который Спайк Ли написал совместно со своей женой Тоней Льюис Ли.
Свернуть
MediaInfo
Общее
Уникальный идентификатор : 251513407059614921256864288937644965460 (0xBD37B85F7E07440880D725DA5740BE54)
Полное имя : I:\Не пойман не вор\Inside Man\Inside Man[R.G.Daredevil].mkv
Формат : Matroska
Версия формата : Version 1
Размер файла : 4,20 Гбайт
Продолжительность : 2 ч. 8 м.
Общий поток : 4669 Кбит/сек
Дата кодирования : UTC 2007-11-12 18:19:02
Программа кодирования : mkvmerge v2.0.2 ('You're My Flame') built on Feb 21 2007 23:40:55
Библиотека кодирования : libebml v0.7.7 + libmatroska v0.8.1

Видео
Идентификатор : 1
Формат : AVC
Формат/Информация : Advanced Video Codec
Профиль формата : High@L5.1
Параметр CABAC формата : Да
Параметр ReFrames формата : 8 кадров
Идентификатор кодека : V_MPEG4/ISO/AVC
Продолжительность : 2 ч. 8 м.
Битрейт : 4220 Кбит/сек
Ширина : 1280 пикселей
Высота : 544 пикселя
Соотношение сторон : 2,35:1
Частота кадров : 23,976 кадра/сек
Цветовое пространство : YUV
Субдискретизация насыщенности : 4:2:0
Битовая глубина : 8 бит
Тип развёртки : Прогрессивная
Бит/(Пиксели*Кадры) : 0.253
Размер потока : 3,71 Гбайт (88%)
Библиотека кодирования : x264 core 56 svn-680
Настройки программы : cabac=1 / ref=5 / deblock=1:-3:-2 / analyse=0x1:0 / me=umh / subme=7 / brdo=1 / mixed_ref=1 / me_range=16 / chroma_me=1 / trellis=1 / 8x8dct=0 / cqm=2 / deadzone=21,11 / chroma_qp_offset=0 / threads=4 / nr=0 / decimate=1 / mbaff=0 / bframes=3 / b_pyramid=1 / b_adapt=1 / b_bias=0 / direct=1 / wpredb=1 / bime=1 / keyint=250 / keyint_min=25 / scenecut=40(pre) / rc=2pass / bitrate=4220 / ratetol=1.0 / rceq='blurCplx^(1-qComp)' / qcomp=0.60 / qpmin=10 / qpmax=51 / qpstep=4 / cplxblur=20.0 / qblur=0.5 / ip_ratio=1.40 / pb_ratio=1.30
Язык : English
Default : Да
Forced : Нет

Аудио
Идентификатор : 2
Формат : AC-3
Формат/Информация : Audio Coding 3
Расширение режима : CM (complete main)
Параметр Endianness формата : Big
Идентификатор кодека : A_AC3
Продолжительность : 2 ч. 8 м.
Вид битрейта : Постоянный
Битрейт : 448 Кбит/сек
Каналы : 6 каналов
Расположение каналов : Front: L C R, Side: L R, LFE
Частота : 48,0 КГц
Битовая глубина : 16 бит
Метод сжатия : С потерями
Размер потока : 413 Мбайт (10%)
Заголовок : Русский(дубляж) DD5.1
Язык : Russian
Default : Да
Forced : Нет
Свернуть
Скриншоты
Изображение

Изображение

Изображение

Изображение

Изображение
Свернуть
Не в сети
Профиль  
 Добавлено: 2012-06-10 08:36 (спустя 1 час 17 минут)
Аватара пользователя
Стаж: 8 лет 7 месяцев
Возраст: 33
Сообщений: 101
грёбанный стыд
Не в сети
Профиль  
Начать новую темуОтветить на тему  [ Сообщений: 2 ] 
Вы не можете начинать темы
Вы не можете отвечать на сообщения
Вы не можете редактировать свои сообщения
Вы не можете удалять свои сообщения