Правила форума

  • В этом разделе создание новых тем Запрещено.
  • Для создания новых тем пользуйтесь Корневым разделом DVD и HD фильмы.
Начать новую темуОтветить на тему  [ 1 сообщение ] 
Торрент файл
Размер: 9 GB • Зарегистрирован: 4 года 11 месяцев • Статус: Проверено
Скачан: 24 раза • Желающих скачать: 0 • Поблагодарили: 9 раз
 Раздают: 0  |  0 KB/s  ]   Качают: 0  |  0 KB/s  ] 
 Полного источника не было 3 года 2 месяца 
Сообщения
 Добавлено: 2011-12-19 17:34
Top-releaser
Аватара пользователя
Стаж: 7 лет 3 месяца
Возраст: 25
Сообщений: 1036
Спасибок: 2694
Лайков: 9
Не сдавайся / Restless

«Who do you live for?»

Изображение



Год выхода: 2011
Страна: США

Жанр: драма
Продолжительность: 01:31:03
Перевод: Профессиональное (многоголосое) [лицензия]

Режиссер: Гас Ван Сент
Сценарий: Джейсон Лью
Продюсер: Брайан Грейзер, Брайс Даллас Ховард, Рон Ховард, ...
Оператор: Харрис Савидес
Композитор: Дэнни Элфман

В ролях: Генри Ли Хоппер, Миа Васиковска, Рё Касэ, Скайлер Фиск, Люсия Струс, Джейн Адамс, Пол Парсон, Кристофер Д. Хардер, Морган Ли

Описание: Энок, переживший клиническую смерть и потерявший в автокатастрофе родителей, знакомится на похоронах с Аннабель, и вскоре между молодыми людьми завязываются романтические отношения. Позднее оказывается, что Аннабель смертельно больна и именно поэтому она ходит на похороны чужих людей, на одних из которых и встретила Энока. Юноша решает помочь любимой подготовиться к неизбежному.

Изображение

Pаздача группы:Изображение

Качество: BDRip 1080p R5
Формат: Mkv

Видео: MPEG4 Video (H264) 1920x1036 23.98fps 12.2 Mbps
Аудио 1: Dolby AC3 48000Hz 6ch 384 Kbps
Аудио 2: Dts 48000Hz 6ch 1 510 Kbps
Subtitle: Utf-8

Изображение

MediaInfo
General
Unique ID : 220548699688311830832135154108489111545 (0xA5EC226E1A5F8628BCD0237CB92D97F9)
Complete name : H:\Download\Ne.sdavaysya.DVD_RG(1080p).mkv
Format : Matroska
Format version : Version 2
File size : 9.00 GiB
Duration : 1h 31mn
Overall bit rate : 14.1 Mbps
Movie name : UNIONGANG.TV -TVB-
Encoded date : UTC 2011-12-18 21:53:04
Writing application : mkvmerge v5.0.1 ('Es ist Sommer') built on Oct 9 2011 11:55:43
Writing library : libebml v1.2.2 + libmatroska v1.3.0

Video
ID : 1
Format : AVC
Format/Info : Advanced Video Codec
Format profile : High@L4.1
Format settings, CABAC : Yes
Format settings, ReFrames : 4 frames
Codec ID : V_MPEG4/ISO/AVC
Duration : 1h 31mn
Bit rate : 12.2 Mbps
Width : 1 920 pixels
Height : 1 036 pixels
Display aspect ratio : 1.853
Frame rate : 23.976 fps
Color space : YUV
Chroma subsampling : 4:2:0
Bit depth : 8 bits
Scan type : Progressive
Bits/(Pixel*Frame) : 0.257
Stream size : 7.61 GiB (85%)
Title : MySilu
Writing library : x264 core 120 r2120 0c7dab9
Encoding settings : cabac=1 / ref=4 / deblock=1:-2:-2 / analyse=0x3:0x113 / me=umh / subme=10 / psy=1 / psy_rd=1.20:0.20 / mixed_ref=1 / me_range=32 / chroma_me=1 / trellis=2 / 8x8dct=1 / cqm=0 / deadzone=21,11 / fast_pskip=0 / chroma_qp_offset=-3 / threads=9 / sliced_threads=0 / nr=0 / decimate=0 / interlaced=0 / bluray_compat=0 / constrained_intra=0 / bframes=5 / b_pyramid=2 / b_adapt=2 / b_bias=0 / direct=3 / weightb=1 / open_gop=0 / weightp=2 / keyint=250 / keyint_min=2 / scenecut=40 / intra_refresh=0 / rc_lookahead=72 / rc=2pass / mbtree=1 / bitrate=12244 / ratetol=1.0 / qcomp=0.60 / qpmin=10 / qpmax=51 / qpstep=4 / cplxblur=20.0 / qblur=0.5 / vbv_maxrate=38000 / vbv_bufsize=38000 / nal_hrd=none / ip_ratio=1.40 / aq=1:1.00
Language : English

Audio #1
ID : 2
Format : AC-3
Format/Info : Audio Coding 3
Mode extension : CM (complete main)
Codec ID : A_AC3
Duration : 1h 31mn
Bit rate mode : Constant
Bit rate : 384 Kbps
Channel(s) : 6 channels
Channel positions : Front: L C R, Side: L R, LFE
Sampling rate : 48.0 KHz
Bit depth : 16 bits
Compression mode : Lossy
Stream size : 250 MiB (3%)
Title : MVO R5
Language : Russian

Audio #2
ID : 3
Format : DTS
Format/Info : Digital Theater Systems
Codec ID : A_DTS
Duration : 1h 31mn
Bit rate mode : Constant
Bit rate : 1 510 Kbps
Channel(s) : 6 channels
Channel positions : Front: L C R, Side: L R, LFE
Sampling rate : 48.0 KHz
Bit depth : 16 bits
Compression mode : Lossy
Stream size : 983 MiB (11%)
Language : English

Text
ID : 4
Format : UTF-8
Codec ID : S_TEXT/UTF8
Codec ID/Info : UTF-8 Plain Text
Language : English


Свернуть
Скриншоты
Изображение
Изображение
Изображение
Изображение
Изображение
Свернуть
Не в сети
Профиль  
Начать новую темуОтветить на тему  [ 1 сообщение ] 
Вы не можете начинать темы
Вы не можете отвечать на сообщения
Вы не можете редактировать свои сообщения
Вы не можете удалять свои сообщения