Правила форума

  • В этом разделе создание новых тем Запрещено.
  • Для создания новых тем пользуйтесь Корневым разделом DVD и HD фильмы.
Начать новую темуОтветить на тему  [ 1 сообщение ] 
Торрент файл
Размер: 5.75 GB • Зарегистрирован: 2 года 8 месяцев • Статус: Проверено
Скачан: 13 раз • Желающих скачать: 0 • Поблагодарили: 4 раза
 Раздают: 0  |  0 KB/s  ]   Качают: 0  |  0 KB/s  ] 
 Полного источника не было 1 год 3 месяца 
Сообщения
 Добавлено: 2014-04-04 13:08
DVD Release Group
Аватара пользователя
Стаж: 7 лет 1 месяц
Сообщений: 3559
Спасибок: 247267
Лайков: 1018
Не угаснет надежда

All Is Lost


Изображение


Год выпуска: 2013
Страна: США
Жанр: Приключения, драма
Продолжительность: 01:45:58
Перевод: Профессиональный (полное дублирование)
Субтитры: Русские
Режиссер: Джей Си Чендор
В ролях: Роберт Редфорд
Описание: Высокий загорелый мужчина путешествует на роскошной яхте в теплых водах Индийского океана, но идиллическая картина меняется в одночасье, и герой оказывается один на один с бездной. Ради тех, кто остался на берегу, он вступит в схватку со свирепой стихией.
Изображение Изображение
Качество: BDRip 720p
Формат: MKV
Видео кодек: H.264
Аудио кодек: DTS
Видео: 1280x532 23.98fps 7000Кбит/сек
Аудио: 48kHz 6ch 755kbps
"MediaInfo"
Формат : Matroska
Версия формата : Version 1
Размер файла : 5,75 Гбайт
Продолжительность : 1 ч. 45 м.
Общий поток : 7767 Кбит/сек
Дата кодирования : UTC 2014-04-04 04:52:35
Программа кодирования : mkvmerge v2.4.1 ('Use Me') built on Dec 5 2008 18:30:05
Библиотека кодирования : libebml v0.7.7 + libmatroska v0.8.1

Видео
Идентификатор : 1
Формат : AVC
Формат/Информация : Advanced Video Codec
Профиль формата : High@L4.1
Параметр CABAC формата : Да
Параметр ReFrames формата : 10 кадров
Идентификатор кодека : V_MPEG4/ISO/AVC
Продолжительность : 1 ч. 45 м.
Битрейт : 7000 Кбит/сек
Ширина : 1280 пикселей
Высота : 532 пикселя
Соотношение сторон : 2,40:1
Частота кадров : 23,976 кадра/сек
Цветовое пространство : YUV
Субдискретизация насыщенности : 4:2:0
Битовая глубина : 8 бит
Тип развёртки : Прогрессивная
Бит/(Пиксели*Кадры) : 0.429
Размер потока : 5,08 Гбайт (88%)
Заголовок : Не угаснет надежда (2013)
Библиотека кодирования : x264 core 138 r2358 9e941d1
Настройки программы : cabac=1 / ref=10 / deblock=1:-3:-3 / analyse=0x3:0x133 / me=umh / subme=10 / psy=1 / psy_rd=1.00:0.10 / mixed_ref=1 / me_range=48 / chroma_me=1 / trellis=2 / 8x8dct=1 / cqm=0 / deadzone=21,11 / fast_pskip=0 / chroma_qp_offset=-3 / threads=6 / lookahead_threads=1 / sliced_threads=0 / nr=0 / decimate=1 / interlaced=0 / bluray_compat=0 / constrained_intra=0 / bframes=5 / b_pyramid=2 / b_adapt=2 / b_bias=0 / direct=3 / weightb=1 / open_gop=0 / weightp=2 / keyint=240 / keyint_min=22 / scenecut=40 / intra_refresh=0 / rc_lookahead=40 / rc=2pass / mbtree=1 / bitrate=7000 / ratetol=1.0 / qcomp=0.60 / qpmin=10 / qpmax=51 / qpstep=4 / cplxblur=20.0 / qblur=0.5 / ip_ratio=1.40 / aq=1:1.00
Язык : English
Default : Да
Forced : Нет

Аудио
Идентификатор : 2
Формат : DTS
Формат/Информация : Digital Theater Systems
Идентификатор кодека : A_DTS
Продолжительность : 1 ч. 45 м.
Вид битрейта : Постоянный
Битрейт : 755 Кбит/сек
Каналы : 6 каналов
Расположение каналов : Front: L C R, Side: L R, LFE
Частота : 48,0 КГц
Битовая глубина : 24 бит
Метод сжатия : С потерями
Размер потока : 572 Мбайт (10%)
Заголовок : DTS (Дублированный)
Язык : Russian
Default : Да
Forced : Нет

Текст
Идентификатор : 3
Формат : UTF-8
Идентификатор кодека : S_TEXT/UTF8
Идентификатор кодека/Информация : UTF-8 Plain Text
Заголовок : Русские (Форсированные)
Язык : Russian
Default : Да
Forced : Нет
Свернуть

"Скриншоты"
Изображение
Изображение
Изображение
Изображение
Свернуть
В сети
Профиль  
Начать новую темуОтветить на тему  [ 1 сообщение ] 
Вы не можете начинать темы
Вы не можете отвечать на сообщения
Вы не можете редактировать свои сообщения
Вы не можете удалять свои сообщения