Правила форума

  • В этом разделе создание новых тем Запрещено.
  • Для создания новых тем пользуйтесь Корневым разделом DVD и HD фильмы.
Начать новую темуОтветить на тему  [ Сообщений: 8 ] 
Торрент файл
Размер: 8.98 GB • Зарегистрирован: 2 года 8 месяцев • Статус: Проверено
Скачан: 93 раза • Желающих скачать: 0 • Поблагодарили: 42 раза
 Раздают: 0  |  0 KB/s  ]   Качают: 0  |  0 KB/s  ] 
 Полного источника не было 2 часа 23 минуты 
Сообщения
 Добавлено: 2014-03-20 23:14
Аватара пользователя
Стаж: 9 лет 1 месяц
Сообщений: 8018
Спасибок: 122264
Лайков: 1194
Не угаснет надежда / All Is Lost

«Never Give Up»

Изображение


Год выпуска: 2013
Страна: Изображение США
Жанр: приключения, драма
Продолжительность: 01:45:44
Субтитры: Русские, английские
Перевод: Профессиональный (полное дублирование) [Лицензия]


Режиссер: Джей Си Чендор
Сценарий: Джей Си Чендор
Продюсер: Нил Додсон, Анна Герб, Джастин Наппи
Оператор: Фрэнк Дж. ДеМарко, Питер Дзуккарини
Композитор: Алекс Эберт

В ролях: Роберт Редфорд

Описание: Высокий загорелый мужчина путешествует на роскошной яхте в теплых водах Индийского океана, но идиллическая картина меняется в одночасье, и герой оказывается один на один с бездной. Ради тех, кто остался на берегу, он вступит в схватку со свирепой стихией.


Изображение Изображение


Раздача группы: Изображение

Качество: BDRip (1080p)
Формат: Matroska
Видео: MPEG-4 AVC, 10281 Кбит/с, 1920x800
Аудио №1: Русский (AC3, 48,0 КГц, 6 ch, 384 Кбит/c)
Аудио №2: Английский (DTS, 48,0 КГц, 6 ch, 1510 Кбит/c)

MediaInfo
Общее
Уникальный идентификатор : 211229577481277085386453371233194689490 (0x9EE9563B38A80008867056FCB6DB43D2)
Полное имя : C:\Фильмы\Не.угаснет.надежда-All.Is.Lost.(2013).BDRip.[1080p].mkv
Формат : Matroska
Версия формата : Version 2
Размер файла : 8,98 Гбайт
Продолжительность : 1 ч. 45 м.
Общий поток : 12,2 Мбит/сек
Название фильма : All Is Lost (2013)
Дата кодирования : UTC 2014-03-20 19:49:13
Программа кодирования : mkvmerge v5.7.0 ('The Whirlwind') built on Jul 29 2012 15:12:35
Библиотека кодирования : libebml v1.2.3 + libmatroska v1.3.0

Видео
Идентификатор : 1
Формат : AVC
Формат/Информация : Advanced Video Codec
Профиль формата : High@L4.1
Параметр CABAC формата : Да
Параметр ReFrames формата : 5 кадров
Идентификатор кодека : V_MPEG4/ISO/AVC
Продолжительность : 1 ч. 45 м.
Битрейт : 10,3 Мбит/сек
Ширина : 1920 пикселей
Высота : 800 пикселей
Соотношение сторон : 2,40:1
Режим частоты кадров : Постоянный
Частота кадров : 23,976 кадра/сек
Цветовое пространство : YUV
Субдискретизация насыщенности : 4:2:0
Битовая глубина : 8 бит
Тип развёртки : Прогрессивная
Бит/(Пиксели*Кадры) : 0.279
Размер потока : 7,41 Гбайт (82%)
Заголовок : Не.угаснет.надежда-All.Is.Lost.(2013).BDRip.[1080p]
Библиотека кодирования : x264 core 138 r2356 a1d3d17
Настройки программы : cabac=1 / ref=5 / deblock=1:-3:-3 / analyse=0x3:0x113 / me=umh / subme=10 / psy=1 / psy_rd=1.00:0.05 / mixed_ref=1 / me_range=32 / chroma_me=1 / trellis=2 / 8x8dct=1 / cqm=0 / deadzone=21,11 / fast_pskip=0 / chroma_qp_offset=-2 / threads=18 / lookahead_threads=1 / sliced_threads=0 / nr=0 / decimate=1 / interlaced=0 / bluray_compat=0 / constrained_intra=0 / bframes=6 / b_pyramid=2 / b_adapt=2 / b_bias=0 / direct=3 / weightb=1 / open_gop=0 / weightp=2 / keyint=250 / keyint_min=23 / scenecut=40 / intra_refresh=0 / rc=2pass / mbtree=0 / bitrate=10281 / ratetol=1.0 / qcomp=0.70 / qpmin=0 / qpmax=69 / qpstep=4 / cplxblur=20.0 / qblur=0.5 / ip_ratio=1.40 / pb_ratio=1.30 / aq=2:0.90
Язык : English
Default : Да
Forced : Нет

Аудио #1
Идентификатор : 2
Формат : AC-3
Формат/Информация : Audio Coding 3
Расширение режима : CM (complete main)
Параметр Endianness формата : Big
Идентификатор кодека : A_AC3
Продолжительность : 1 ч. 45 м.
Вид битрейта : Постоянный
Битрейт : 384 Кбит/сек
Каналы : 6 каналов
Расположение каналов : Front: L C R, Side: L R, LFE
Частота : 48,0 КГц
Битовая глубина : 16 бит
Метод сжатия : С потерями
Размер потока : 290 Мбайт (3%)
Заголовок : Лиц
Язык : Russian
Default : Да
Forced : Нет

Аудио #2
Идентификатор : 3
Формат : DTS
Формат/Информация : Digital Theater Systems
Режим : 16
Параметр Endianness формата : Big
Идентификатор кодека : A_DTS
Продолжительность : 1 ч. 45 м.
Вид битрейта : Постоянный
Битрейт : 1509 Кбит/сек
Каналы : 6 каналов
Расположение каналов : Front: L C R, Side: L R, LFE
Частота : 48,0 КГц
Битовая глубина : 24 бит
Метод сжатия : С потерями
Размер потока : 1,11 Гбайт (12%)
Заголовок : DTS 5.1 / 1536 kbps / Original
Язык : English
Default : Нет
Forced : Нет

Текст #1
Идентификатор : 4
Формат : UTF-8
Идентификатор кодека : S_TEXT/UTF8
Идентификатор кодека/Информация : UTF-8 Plain Text
Заголовок : Full
Язык : Russian
Default : Нет
Forced : Нет

Текст #2
Идентификатор : 5
Формат : UTF-8
Идентификатор кодека : S_TEXT/UTF8
Идентификатор кодека/Информация : UTF-8 Plain Text
Заголовок : Full
Язык : English
Default : Нет
Forced : Нет

Текст #3
Идентификатор : 6
Формат : UTF-8
Идентификатор кодека : S_TEXT/UTF8
Идентификатор кодека/Информация : UTF-8 Plain Text
Заголовок : SDH
Язык : English
Default : Нет
Forced : Нет

Меню
00:00:00.000 : en:00:00:00.000
00:06:14.916 : en:00:06:14.916
00:12:36.673 : en:00:12:36.673
00:18:26.647 : en:00:18:26.647
00:25:21.061 : en:00:25:21.061
00:30:09.266 : en:00:30:09.266
00:36:16.633 : en:00:36:16.633
00:42:42.226 : en:00:42:42.226
00:48:24.193 : en:00:48:24.193
00:53:59.486 : en:00:53:59.486
01:00:03.099 : en:01:00:03.099
01:07:18.534 : en:01:07:18.534
01:12:05.571 : en:01:12:05.571
01:18:12.563 : en:01:18:12.563
01:24:27.854 : en:01:24:27.854
01:38:45.002 : en:01:38:45.002
Свернуть
Знаете ли вы, что...
В сценарии фильма практически отсутствуют диалоги, и его объем составляет 32 страницы.

Это единственный фильм за более чем 100 лет истории международного кинематографа, в котором всего один актер и один сценарист/режиссер, но при этом одиннадцать исполнительных продюсеров и еще шесть продюсеров различных направленностей.

Когда герой использует радиопередатчик, он говорит в него не с той стороны. Микрофон находится с противоположной стороны, а он говорит в металлическую стенку.

После того как герой бреется, в течение следующих восьми дней, большую часть из которых он борется за свою жизнь в надувной спасательной шлюпке, его лицо остается гладким, без каких-либо признаков щетины.

Когда лодка героя впервые переворачивается во время шторма, можно заметить, что один из иллюминаторов открыт. Из-за этого внутрь лодки должно было бы попасть большое количество воды, но ее там нет.

Свернуть
Скриншоты
Изображение
Изображение
Изображение
Изображение
Свернуть
 DedMoroZ нравится это.
Не в сети
Профиль  
 Добавлено: 2014-03-20 23:59 (спустя 45 минут)
Аватара пользователя
Стаж: 8 лет 9 месяцев
Сообщений: 1170
Спасибок: 1294
Лайков: 7
во время просмотра берет за душу или что-то другое?
Не в сети
Профиль  
 Добавлено: 2014-03-22 10:14 (спустя 1 день 10 часов)
Аватара пользователя
Стаж: 8 лет 3 месяца
Возраст: 29
Сообщений: 109
Спасибок: 3
что то много последнее время фильмов про выживание =) очень напоминает про пацана в лодке с тигром
_________________
Изображение
Не в сети
Профиль  
 Добавлено: 2014-03-24 19:31 (спустя 2 дня 9 часов)
Аватара пользователя
Стаж: 8 лет 3 месяца
Возраст: 29
Сообщений: 109
Спасибок: 3
Посмотрел кино и ощутил всю глупость мужика который плыл в этой убогой лодке =)) совершенно безмозглый чувак =))) странно что он до старости вообще дожил, фильм слегка не правдоподобен, смотреть скучно, посмотрел 40 минут, понял что на большее меня не хватит. Вывод: нахер такие фильмы =)
_________________
Изображение
Не в сети
Профиль  
 Добавлено: 2014-04-01 18:34 (спустя 7 дней)
Аватара пользователя
Стаж: 8 лет 3 месяца
Сообщений: 67
Вот это фильм!
Нет слов!
(Побольше бы таких)
Не в сети
Профиль  
 Добавлено: 2014-04-03 19:27 (спустя 2 дня)
Стаж: 2 года 9 месяцев
Сообщений: 11
Смотреть, не смотреть, напишете хоть один умный, аргументированный комментарий.))
Не в сети
Профиль  
 Добавлено: 2014-04-04 16:38 (спустя 21 час)
Стаж: 5 лет 10 месяцев
Сообщений: 280
Лайков: 8
Роберт Редфорд,это Роберт Редфорд...режиссура,чисто америкозная(чего с них взять,коли негр-президент)...то есть на лицо англо-саксонский пофигизм...типа,че сняли то и смотрите....честно на троечку....с ТИГРоМ в лодке(Тайланд,по по моему),мне больше понравился,там хоть психоделика...хотя,это только моё мнение..смотрите и сами выбирайте.
Не в сети
Профиль  
 Добавлено: 2014-04-05 22:37 (спустя 1 день 5 часов)
Аватара пользователя
Стаж: 9 лет
Сообщений: 1403
Спасибок: 1
хороший фильм
Не в сети
Профиль  
Начать новую темуОтветить на тему  [ Сообщений: 8 ] 
Вы не можете начинать темы
Вы не можете отвечать на сообщения
Вы не можете редактировать свои сообщения
Вы не можете удалять свои сообщения