Правила форума

  • В этом разделе создание новых тем Запрещено.
  • Для создания новых тем пользуйтесь Корневым разделом DVD и HD фильмы.
Начать новую темуОтветить на тему  [ Сообщений: 2 ] 
Торрент файл
Размер: 15.41 GB • Зарегистрирован: 2 года 3 месяца • Статус: T Временный релиз
Скачан: 17 раз • Желающих скачать: 0 • Поблагодарили: 7 раз
 Раздают: 1  |  0 KB/s  ]   Качают: 0  |  0 KB/s  ] 
Сообщения
 Добавлено: 2014-08-21 15:29
Руководитель релиз-группы
Аватара пользователя
Стаж: 7 лет 2 месяца
Возраст: 4
Сообщений: 5213
Спасибок: 19350
Лайков: 2312
Небраска / Nebraska

Изображение


Год выпуска: 2013
Страна: США, Blue Lake Media Fund, Bona Fide Productions, Echo Lake Productions
Жанр: Драма, приключения
Продолжительность: 01:54:43
Перевод: Профессиональный (дубляж)

Режиссёр: Александр Пэйн
В ролях: Брюс Дерн, Уилл Форте, Джун Скуиб, Боб Оденкёрк, Стейси Кич, Рэнс Ховард, Мисси Доти, Кевин Кункель, Девин Рэтрей, Мелинда Симонсен
Описание: Рассказ пойдет про отца-алкоголика, который выиграл миллион долларов. Он не хочет отправляться сам в долгий путь из Монтаны в Небраску, чтобы забрать свой выигрыш. Его сын, которому далеко за двадцать, не верит, что билет выигрышный, но все равно решает отправиться вместе с отцом, чтобы уберечь его от опасностей и всяких неприятностей, а также сблизиться за время путешествия.


Качество: BDRip (1080p)
Формат: MKV
Видео: MPEG-4 AVC, 17332 Кбит/с, 1920x800
Аудио #1: Русский (AC3, 6 ch, 384 Кбит/с), английский (DTS, 3 ch, 1509 Кбит/с) [Профессиональный (дубляж)]
Скриншоты
Изображение
Изображение
Изображение
Свернуть


MI
Format : Matroska
Format version : Version 4 / Version 2
File size : 15.4 GiB
Duration : 1h 54mn
Overall bit rate : 19.2 Mbps
Encoded date : UTC 2014-08-20 18:31:57
Writing application : mkvmerge v6.9.1 ('Blue Panther') 64bit built on Apr 18 2014 18:23:38
Writing library : libebml v1.3.0 + libmatroska v1.4.1

Video
ID : 1
Format : AVC
Format/Info : Advanced Video Codec
Format profile : High@L4.1
Format settings, CABAC : Yes
Format settings, ReFrames : 5 frames
Codec ID : V_MPEG4/ISO/AVC
Duration : 1h 54mn
Bit rate : 17.0 Mbps
Width : 1 920 pixels
Height : 800 pixels
Display aspect ratio : 2.40:1
Frame rate mode : Constant
Frame rate : 23.976 fps
Color space : YUV
Chroma subsampling : 4:2:0
Bit depth : 8 bits
Scan type : Progressive
Bits/(Pixel*Frame) : 0.460
Stream size : 13.6 GiB (88%)
Writing library : x264 core 142 r2389+41 02cb608 tMod [8-bit@all X86_64]
Encoding settings : cabac=1 / ref=5 / deblock=1:-3:-3 / analyse=0x3:0x133 / me=tesa / subme=11 / psy=1 / fade_compensate=0.00 / psy_rd=1.00:0.00 / mixed_ref=1 / me_range=30 / chroma_me=1 / trellis=2 / 8x8dct=1 / cqm=0 / deadzone=21,11 / fast_pskip=0 / chroma_qp_offset=-2 / threads=6 / lookahead_threads=1 / sliced_threads=0 / nr=0 / decimate=0 / interlaced=0 / bluray_compat=0 / constrained_intra=0 / fgo=0 / bframes=7 / b_pyramid=2 / b_adapt=2 / b_bias=0 / direct=3 / weightb=1 / open_gop=0 / weightp=2 / keyint=250 / keyint_min=23 / scenecut=40 / intra_refresh=0 / rc_lookahead=60 / rc=crf / mbtree=0 / crf=17.0000 / qcomp=0.75 / qpmin=0:0:0 / qpmax=69:69:69 / qpstep=4 / vbv_maxrate=62500 / vbv_bufsize=78125 / crf_max=0.0 / nal_hrd=none / filler=0 / ip_ratio=1.20 / pb_ratio=1.10 / aq=4:0.70 / aq-sensitivity=10.00 / aq-factor=1.00:1.00:1.00 / aq2=0 / aq3=0 / zones=208,354,ipratio=1.4,pbratio=1.3,me=esa,crf=23/355,2083,crf=18/2084,4052,ipratio=1.4,pbratio=1.3,me=esa,crf=22/4053,4265,crf=18/4802,4880,crf=18/6775,6878,crf=18/9413,9915,crf=18/10979,11090,crf=18/13984,14101,crf=18/17510,17723,crf=18/20303,20644,crf=18/21088,21160,crf=18/21333,21360,crf=18/21607,21776,crf=18/22160,22185,crf=18/22627,22849,crf=18/23812,24700,crf=18/26125,27120,crf=16/33333,33695,crf=18/33871,33910,crf=18/34130,34280,crf=18/35393,35525,crf=18/57769,58279/58280,58318,ipratio=1.4,pbratio=1.4,me=esa,crf=25/58320,58704,crf=16/58963,59082,crf=18/62554,62684,crf=18/72619,72680,crf=18/72732,72840,crf=18/89766,89867,ipratio=1.4,pbratio=1.4,me=esa,crf=25/98282,98532,crf=18/103865,104095,crf=18/104380,104620,crf=18/111030,111309,crf=18/112414,112940,crf=18/113072,113372,crf=18/114430,117460,crf=18/121960,122072,crf=18/122114,122149,ipratio=1.4,pbratio=1.4,me=esa,crf=25/122150,122269/125393,126196,crf=16/129927,130010,crf=18/138000,138050,crf=18/140738,141024,crf=18/141132,141410,crf=18/141570,142489,crf=18/142490,143323,crf=18/146478,146528,crf=18/147715,147893,crf=18/149993,150202,crf=18/150740,151090,crf=18/151092,151410,crf=18/153010,153420,crf=18/154075,154125,crf=18/154430,154565,crf=18/154715,154835,crf=18/154908,155027,crf=18/155110,155240,crf=18/155346,155370,crf=18/155920,157999,crf=18/158000,159045,crf=18.5/159046,165043,ipratio=1.4,pbratio=1.3,me=esa,crf=23
Language : English
Default : Yes
Forced : No
Matrix coefficients : BT.709

Audio #1
ID : 2
Format : AC-3
Format/Info : Audio Coding 3
Mode extension : CM (complete main)
Format settings, Endianness : Big
Codec ID : A_AC3
Duration : 1h 54mn
Bit rate mode : Constant
Bit rate : 384 Kbps
Channel(s) : 6 channels
Channel positions : Front: L C R, Side: L R, LFE
Sampling rate : 48.0 KHz
Bit depth : 16 bits
Compression mode : Lossy
Stream size : 315 MiB (2%)
Language : Russian
Default : Yes
Forced : No

Audio #2
ID : 3
Format : DTS
Format/Info : Digital Theater Systems
Mode : 16
Format settings, Endianness : Big
Codec ID : A_DTS
Duration : 1h 54mn
Bit rate mode : Constant
Bit rate : 1 509 Kbps
Channel(s) : 3 channels
Channel positions : Front: L C R
Sampling rate : 48.0 KHz
Bit depth : 24 bits
Compression mode : Lossy
Stream size : 1.21 GiB (8%)
Language : English
Default : No
Forced : No

Text #1
ID : 4
Format : UTF-8
Codec ID : S_TEXT/UTF8
Codec ID/Info : UTF-8 Plain Text
Title : Full
Language : Romanian
Default : No
Forced : No

Text #2
ID : 5
Format : UTF-8
Codec ID : S_TEXT/UTF8
Codec ID/Info : UTF-8 Plain Text
Language : Russian
Default : No
Forced : No

Text #3
ID : 6
Format : UTF-8
Codec ID : S_TEXT/UTF8
Codec ID/Info : UTF-8 Plain Text
Language : English
Default : No
Forced : No

Text #4
ID : 7
Format : UTF-8
Codec ID : S_TEXT/UTF8
Codec ID/Info : UTF-8 Plain Text
Default : No
Forced : No

Text #5
ID : 8
Format : UTF-8
Codec ID : S_TEXT/UTF8
Codec ID/Info : UTF-8 Plain Text
Language : English
Default : No
Forced : No

Menu
00:00:00.000 : en:00:00:00.000
00:06:32.600 : en:00:06:32.600
00:13:18.380 : en:00:13:18.380
00:18:09.630 : en:00:18:09.630
00:25:35.534 : en:00:25:35.534
00:31:17.083 : en:00:31:17.083
00:37:16.901 : en:00:37:16.901
00:46:10.601 : en:00:46:10.601
00:51:17.365 : en:00:51:17.365
00:55:07.846 : en:00:55:07.846
01:02:24.449 : en:01:02:24.449
01:08:19.178 : en:01:08:19.178
01:13:26.318 : en:01:13:26.318
01:21:13.952 : en:01:21:13.952
01:27:09.933 : en:01:27:09.933
01:32:20.117 : en:01:32:20.117
01:39:37.805 : en:01:39:37.805
01:48:59.032 : en:01:48:59.032
Свернуть
Не в сети
Профиль  
 Добавлено: 2014-08-26 12:53 (спустя 4 дня)
Кинокомментатор
Аватара пользователя
Стаж: 9 лет 1 месяц
Сообщений: 1332
Лайков: 54
классное кино! мечта и депрессия) эээх жизнь... как она одинакова... в общем смотреть стоит явно) про нашу провинцию можно примерно тоже самое снять...
перевод совсем не дубляж!)
7/10
_________________
Я ВКонтакте
Не в сети
Профиль  
Начать новую темуОтветить на тему  [ Сообщений: 2 ] 
Вы не можете начинать темы
Вы не можете отвечать на сообщения
Вы не можете редактировать свои сообщения
Вы не можете удалять свои сообщения