Правила форума

  • В этом разделе создание новых тем Запрещено.
  • Для создания новых тем пользуйтесь Корневым разделом DVD и HD фильмы.
Начать новую темуОтветить на тему  [ Сообщений: 2 ] 
Торрент файл
Размер: 10.97 GB • Зарегистрирован: 5 лет • Статус: Проверено
Скачан: 127 раз • Желающих скачать: 0 • Поблагодарили: 33 раза
 Раздают: 0  |  0 KB/s  ]   Качают: 0  |  0 KB/s  ] 
 Полного источника не было 7 месяцев 
Сообщения
 Добавлено: 2011-11-30 14:15
Модератор релиз-группы
Аватара пользователя
Стаж: 9 лет 1 месяц
Возраст: 97
Сообщений: 11660
Спасибок: 6534
Лайков: 269
Нечто / The Thing
«Величайшее открытие человечества может стать последним»

Изображение

Год выпуска: 2011
Страна: США, Канада
Жанр: ужасы, фантастика, триллер, детектив
Продолжительность: 01:43:04
Перевод: Профессиональный (полное дублирование)

Режиссер: Маттис ван Хейниген мл.
Сценарий: Эрик Хайссерер, Джон В. Кэмпбелл мл.

В ролях: Мэри Элизабет Уинстэд, Джоэл Эдгертон, Ульрих Томсен, Эрик Кристиан Олсен, Адевале Акиннуойе-Агбадже, Пол Браунштейн, Тронд Эспен Сейм, Ким Баббс, Ёрген Лангхелле, Ян Гуннар Рёйсе, Стиг Хенрик Хофф, Kristofer Hivju
Дублёры: Ольга Иванова, Радик Мухаметзянов, Александр Гаврилин, Илья Хвостиков, Михаил Георгиу, Василий Дахненко, Наталья Грачева, Даниил Щебланов, Михаил Белякович, Диомид Виноградов, Александр Носков, Денис Беспалый

Описание: Научная экспедиция обнаруживает в Антарктике потерпевший крушение инопланетный космический корабль. Группа отчаянных учёных проникает в его недра и неожиданно для самих себя открывает ящик Пандоры. Среди непроходимых снегов и ледяных гор, выпущенное на свободу Нечто устраивает на исследовательской станции жуткую бойню.
Изображение
Формат: MKV
Качество: BDRemux
Видео: AVC; 1920x1080; 14.5 Mbps; 23,976 fps
Аудио: AC3, 48,0 КГц, 384 Кбит/сек, 5.1

"Скриншоты"
Изображение

Изображение

Изображение

Изображение
Свернуть
Mi
Format : Matroska
Format version : Version 2
File size : 11.0 GiB
Duration : 1h 43mn
Overall bit rate mode : Variable
Overall bit rate : 15.2 Mbps
Encoded date : UTC 2011-11-30 11:01:32
Writing application : mkvmerge v5.0.1 ('Es ist Sommer') built on Oct 9 2011 11:55:43
Writing library : libebml v1.2.2 + libmatroska v1.3.0

Video
ID : 1
Format : AVC
Format/Info : Advanced Video Codec
Format profile : High@L4.1
Format settings, CABAC : Yes
Format settings, ReFrames : 4 frames
Format settings, GOP : M=3, N=18
Codec ID : V_MPEG4/ISO/AVC
Duration : 1h 43mn
Bit rate mode : Variable
Bit rate : 14.5 Mbps
Maximum bit rate : 30.0 Mbps
Width : 1 920 pixels
Height : 1 080 pixels
Display aspect ratio : 16:9
Frame rate : 23.976 fps
Standard : NTSC
Color space : YUV
Chroma subsampling : 4:2:0
Bit depth : 8 bits
Scan type : Progressive
Bits/(Pixel*Frame) : 0.293
Stream size : 10.5 GiB (95%)
Color primaries : BT.709-5, BT.1361, IEC 61966-2-4, SMPTE RP177
Transfer characteristics : BT.709-5, BT.1361
Matrix coefficients : BT.709-5, BT.1361, IEC 61966-2-4 709, SMPTE RP177

Audio
ID : 2
Format : AC-3
Format/Info : Audio Coding 3
Mode extension : CM (complete main)
Codec ID : A_AC3
Duration : 1h 43mn
Bit rate mode : Constant
Bit rate : 384 Kbps
Channel(s) : 6 channels
Channel positions : Front: L C R, Side: L R, LFE
Sampling rate : 48.0 KHz
Bit depth : 16 bits
Compression mode : Lossy
Stream size : 283 MiB (3%)
Title : Dubbed
Language : Russian

Свернуть
_________________
Изображение
Не в сети
Профиль  
 Добавлено: 2014-06-09 13:11 (спустя 2 года 6 месяцев)
Стаж: 7 лет 11 месяцев
Сообщений: 20
раздайте плиз
Не в сети
Профиль  
Начать новую темуОтветить на тему  [ Сообщений: 2 ] 
Вы не можете начинать темы
Вы не можете отвечать на сообщения
Вы не можете редактировать свои сообщения
Вы не можете удалять свои сообщения