Правила форума

  • В этом разделе создание новых тем Запрещено.
  • Для создания новых тем пользуйтесь Корневым разделом DVD и HD фильмы.
Начать новую темуОтветить на тему  [ Сообщений: 5 ] 
Торрент файл
Размер: 6.86 GB • Зарегистрирован: 5 лет 6 месяцев • Статус: Проверено
Скачан: 150 раз • Желающих скачать: 0 • Поблагодарили: 29 раз
 Раздают: 0  |  0 KB/s  ]   Качают: 0  |  0 KB/s  ] 
 Полного источника не было 1 месяц 3 дня 
Сообщения
 Добавлено: 2011-06-03 10:55
Модератор
Аватара пользователя
Стаж: 8 лет 1 месяц
Возраст: 20
Сообщений: 32130
Спасибок: 98569
Лайков: 80
Изображение

Неизвестный / Unknown


Год выпуска: 2011
Страна: США, Германия, Канада, Франция, Япония, Великобритания
Слоган: «Верни себе свою жизнь»

Жанр: триллер, драма, детектив
Продолжительность: 01:53:11
Перевод: Профессиональный (полное дублирование) [лицензия]

Режиссёр: Жауме Серра
В ролях: Лиам Нисон, Дайан Крюгер, Дженьюэри Джонс, Эйдан Куинн, Бруно Ганц, Фрэнк Ланджелла, Себастьян Кох, Оливье Шнайдер, Стипе Эрчег, Райнер Бок
Бюджет: $30 000 000
Сборы в США: $63 686 397
Сборы в России: $1 859 086
Сборы в мире: $130 786 397

Мировая премьера: 16 февраля 2011
Релиз на DVD: 16 июня 2011, «CP-Digital»
Описание: В этом фильме рассказывается о мужчине, который после пробуждения от комы обнаруживает, что его личность присвоена другим, и понимает, что никто, даже собственная жена, не верит ему. И тогда при помощи незнакомой молодой женщины-таксистки герой стремится доказать, кто он такой.
Изображение
MPAA: Изображение - Детям до 13 лет просмотр не желателен
Качество: BDRip 720p R5
Формат: Matroska

Видео: 6779 kb/s, 1280x528, 23.976 fps
Аудио: Russian: AC3, 384 kb/s (6 ch) / English: DTS, 1510 kb/s (6 ch)
Субтитры: Russian, English [SDH]
Релиз группы: Изображение
MediaInfo
General
Unique ID : 178860283756212787205652233595228250940 (0x868F3CD5A1D87060B362917B6F1BE33C)
Complete name : C:\ Unknown.2011.720p.BluRay.x264.mkv
Format : Matroska
File size : 6.86 GiB
Duration : 1h 53mn
Overall bit rate : 8 670 Kbps
Encoded date : UTC 2011-06-03 05:52:57
Writing application : mkvmerge v4.2.0 ('No Talking') сборка от Jul 28 2010 18:38:23
Writing library : libebml v1.0.0 + libmatroska v1.0.0

Video
ID : 1
Format : AVC
Format/Info : Advanced Video Codec
Format profile : High@L4.1
Format settings, CABAC : Yes
Format settings, ReFrames : 5 frames
Muxing mode : Header stripping
Codec ID : V_MPEG4/ISO/AVC
Duration : 1h 53mn
Bit rate : 6 779 Kbps
Width : 1 280 pixels
Height : 528 pixels
Display aspect ratio : 2.40:1
Frame rate : 23.976 fps
Color space : YUV
Chroma subsampling : 4:2:0
Bit depth : 8 bits
Scan type : Progressive
Bits/(Pixel*Frame) : 0.418
Stream size : 5.22 GiB (76%)
Writing library : x264 core 115 r1995 c1e60b9
Encoding settings : cabac=1 / ref=5 / deblock=1:0:0 / analyse=0x3:0x133 / me=umh / subme=7 / psy=1 / psy_rd=1.00:0.00 / mixed_ref=1 / me_range=16 / chroma_me=1 / trellis=1 / 8x8dct=1 / cqm=0 / deadzone=21,11 / fast_pskip=0 / chroma_qp_offset=-2 / threads=18 / sliced_threads=0 / nr=0 / decimate=1 / interlaced=0 / bluray_compat=0 / constrained_intra=0 / bframes=3 / b_pyramid=2 / b_adapt=2 / b_bias=0 / direct=3 / weightb=1 / open_gop=0 / weightp=2 / keyint=250 / keyint_min=23 / scenecut=40 / intra_refresh=0 / rc_lookahead=50 / rc=2pass / mbtree=1 / bitrate=6779 / ratetol=1.0 / qcomp=0.60 / qpmin=0 / qpmax=69 / qpstep=4 / cplxblur=20.0 / qblur=0.5 / ip_ratio=1.40 / aq=1:1.00

Audio #1
ID : 2
Format : AC-3
Format/Info : Audio Coding 3
Mode extension : CM (complete main)
Muxing mode : Header stripping
Codec ID : A_AC3
Duration : 1h 53mn
Bit rate mode : Constant
Bit rate : 384 Kbps
Channel(s) : 6 channels
Channel positions : Front: L C R, Side: L R, LFE
Sampling rate : 48.0 KHz
Bit depth : 16 bits
Compression mode : Lossy
Stream size : 311 MiB (4%)
Language : Russian

Audio #2
ID : 3
Format : DTS
Format/Info : Digital Theater Systems
Muxing mode : Header stripping
Codec ID : A_DTS
Duration : 1h 53mn
Bit rate mode : Constant
Bit rate : 1 510 Kbps
Channel(s) : 6 channels
Channel positions : Front: L C R, Side: L R, LFE
Sampling rate : 48.0 KHz
Bit depth : 24 bits
Compression mode : Lossy
Stream size : 1.19 GiB (17%)
Language : English

Text
ID : 4
Format : UTF-8
Codec ID : S_TEXT/UTF8
Codec ID/Info : UTF-8 Plain Text
Language : English

Menu
00:00:00.000 : :Chapter 01
00:08:14.033 : :Chapter 02
00:17:56.600 : :Chapter 03
00:28:54.633 : :Chapter 04
00:37:31.700 : :Chapter 05
00:47:36.900 : :Chapter 06
00:58:32.367 : :Chapter 07
01:07:34.968 : :Chapter 08
01:16:47.702 : :Chapter 09
01:26:41.236 : :Chapter 10
01:35:58.937 : :Chapter 11
01:46:11.070 : :Chapter 12
01:48:32.237 : :Chapter 13
01:52:42.938 : :Chapter 14
Свернуть
Скриншоты
Изображение
Изображение
Изображение
Изображение
Свернуть


Последний раз редактировалось Костян236 2011-06-03 13:16, всего редактировалось 1 раз.
Не в сети
Профиль  
 Добавлено: 2011-06-03 11:45 (спустя 50 минут)
Аватара пользователя
Стаж: 6 лет 11 месяцев
Сообщений: 18045
Спасибок: 6236
Лайков: 1
Классный фильм,мне понравился :co_ol:
Не в сети
Профиль  
 Добавлено: 2011-06-04 11:28 (спустя 23 часа)
Аватара пользователя
Стаж: 7 лет 8 месяцев
Возраст: 25
Сообщений: 3544
Спасибок: 9642
Лайков: 1
респектос за качество костяну снова)
Не в сети
Профиль  
 Добавлено: 2012-08-26 17:50 (спустя 1 год 2 месяца)
Стаж: 7 лет 4 месяца
Сообщений: 3
есть кто нибудь???
дайте скорости!!!
Не в сети
Профиль  
 Добавлено: 2012-08-28 23:02 (спустя 2 дня 5 часов)
Стаж: 5 лет 2 месяца
Сообщений: 4
Спасибо ! Класный фильмец !!!
Не в сети
Профиль  
Начать новую темуОтветить на тему  [ Сообщений: 5 ] 
Вы не можете начинать темы
Вы не можете отвечать на сообщения
Вы не можете редактировать свои сообщения
Вы не можете удалять свои сообщения