Правила форума

  • В этом разделе создание новых тем Запрещено.
  • Для создания новых тем пользуйтесь Корневым разделом DVD и HD фильмы.
Начать новую темуОтветить на тему  [ 1 сообщение ] 
Торрент файл
Размер: 4.64 GB • Зарегистрирован: 1 год 3 месяца • Статус: Проверено
Скачан: 6 раз • Желающих скачать: 0 • Поблагодарили: 0 раз
 Раздают: 0  |  0 KB/s  ]   Качают: 0  |  0 KB/s  ] 
 Полного источника не было 9 месяцев 
Сообщения
 Добавлено: 2015-08-18 12:18
RG-ELEKTRO
Аватара пользователя
Стаж: 2 года 3 месяца
Сообщений: 7928
Спасибок: 53778
Лайков: 3304
Нежность / Tenderness


«Близость убийства»

Изображение


Год выпуска: 2007
Страна: США (GreeneStreet Films)
Жанр: триллер, драма, криминал
Продолжительность: 01:40:55
Перевод: Профессиональный (двухголосый закадровый) + Оригинальная звуковая дорожка
Субтитры: Английские

Режиссёр: Джон Полсон
Сценарист: Эмиль Штерн, Роберт Кормье
Продюсер: Ховард Мелцер, Джон Пенотти, Чарльз Рэндольф
Оператор: Том Стерн
Композитор: Джонатан Голдсмит
В ролях: Расселл Кроу, Джон Фостер, Софи Трауб, Майкл Эл, Винсент Багналл, Таня Кларк, Карина Колон, Лора Дерн, Алексис Дзена, Джейн Фергус, Дан Фонтейн, Ларс Герхард, Алисия Хардинг, Марк Хавлис, Тим Хоппер, Ингрид Джонсон, Филип И Джонс, Майкл Келли (V), Джон Каприс, Дэвид Лароза
Описание: Вышедший из тюрьмы для несовершеннолетних Эрик Коменко, убивший в состоянии аффекта своих родителей, отправляется в путь, стремясь к новой встрече. Причудливая и влюбленная в Эрика девушка Лора неожиданно оказывается у него в машине, становясь незваной его попутчицей. Находящийся на пенсии лейтенант Джон Кристофоро следует по пятам за Эриком Коменко, твердо уверившись в его виновности и склонности к убийствам. Что ждет их всех в конечной точке пути? Кто из них бежит от боли, а кто гонится за новым удовольствием?..
Мировая премьера: 15 января 2009
Изображение Изображение
Качество: BDRip 720p
Формат: MKV
Видео кодек: MPEG-4 AVC
Аудио кодек: AC3 / DTS
Видео: MPEG-4 AVC, 4687 Кбит/с, 1280x544
Аудио #1: AC3, 6 ch, 384 Кбит/с [Профессиональный (двухголосый закадровый)]
Аудио #2: Английский (DTS, 6 ch, 1536 Кбит/с) [Оригинальная звуковая дорожка]
Субтитры: Английские

"MI"
General
Unique ID : 186171210746764144437928042159108602533 (0x8C0F455D5F5F2C7FABB0838641F53AA5)
Complete name : D:\фильмы\Neznost.2009.x264.BDRip.mkv
Format : Matroska
Format version : Version 2
File size : 4.64 GiB
Duration : 1h 41mn
Overall bit rate : 6 566 Kbps
Movie name : =kinozal.tv-HD=
Encoded date : UTC 2010-01-27 09:49:19
Writing application : mkvmerge v2.9.8 ('C'est le bon') built on Aug 13 2009 12:49:06
Writing library : libebml v0.7.7 + libmatroska v0.8.1

Video
ID : 1
Format : AVC
Format/Info : Advanced Video Codec
Format profile : High@L4.1
Format settings, CABAC : Yes
Format settings, ReFrames : 5 frames
Codec ID : V_MPEG4/ISO/AVC
Duration : 1h 41mn
Bit rate : 4 687 Kbps
Width : 1 280 pixels
Height : 544 pixels
Display aspect ratio : 2.35:1
Frame rate mode : Constant
Frame rate : 23.976 fps
Color space : YUV
Chroma subsampling : 4:2:0
Bit depth : 8 bits
Scan type : Progressive
Bits/(Pixel*Frame) : 0.281
Stream size : 3.21 GiB (69%)
Writing library : x264 core 83 r1400 20fa784
Encoding settings : cabac=1 / ref=5 / deblock=1:0:0 / analyse=0x3:0x133 / me=umh / subme=7 / psy=1 / psy_rd=1.0:0.0 / mixed_ref=1 / me_range=16 / chroma_me=1 / trellis=1 / 8x8dct=1 / cqm=0 / deadzone=21,11 / fast_pskip=0 / chroma_qp_offset=-2 / threads=6 / sliced_threads=0 / nr=0 / decimate=1 / mbaff=0 / constrained_intra=0 / bframes=3 / b_pyramid=2 / b_adapt=1 / b_bias=0 / direct=1 / wpredb=1 / wpredp=2 / keyint=250 / keyint_min=25 / scenecut=40 / intra_refresh=0 / rc_lookahead=40 / rc=2pass / mbtree=1 / bitrate=4687 / ratetol=1.0 / qcomp=0.60 / qpmin=10 / qpmax=51 / qpstep=4 / cplxblur=20.0 / qblur=0.5 / ip_ratio=1.40 / aq=1:1.00
Language : English
Default : No
Forced : No

Audio #1
ID : 2
Format : AC-3
Format/Info : Audio Coding 3
Mode extension : CM (complete main)
Format settings, Endianness : Big
Codec ID : A_AC3
Duration : 1h 41mn
Bit rate mode : Constant
Bit rate : 384 Kbps
Channel(s) : 6 channels
Channel positions : Front: L C R, Side: L R, LFE
Sampling rate : 48.0 KHz
Bit depth : 16 bits
Compression mode : Lossy
Delay relative to video : 20ms
Stream size : 278 MiB (6%)
Language : Russian
Default : Yes
Forced : No

Audio #2
ID : 3
Format : DTS
Format/Info : Digital Theater Systems
Mode : 16
Format settings, Endianness : Big
Codec ID : A_DTS
Duration : 1h 41mn
Bit rate mode : Constant
Bit rate : 1 509 Kbps
Channel(s) : 6 channels
Channel positions : Front: L C R, Side: L R, LFE
Sampling rate : 48.0 KHz
Bit depth : 16 bits
Compression mode : Lossy
Stream size : 1.07 GiB (23%)
Language : English
Default : No
Forced : No

Text
ID : 4
Format : UTF-8
Codec ID : S_TEXT/UTF8
Codec ID/Info : UTF-8 Plain Text
Language : English
Default : Yes
Forced : No

Свернуть

Скриншоты
Изображение
Изображение
Изображение
Изображение
Изображение
Свернуть
_________________
Не ищите меня в "ВКонтакте", в "Одноклассниках" меня нет - я на трекерах сижу!
Не в сети
Профиль  
Начать новую темуОтветить на тему  [ 1 сообщение ] 
Вы не можете начинать темы
Вы не можете отвечать на сообщения
Вы не можете редактировать свои сообщения
Вы не можете удалять свои сообщения