Правила форума

  • В этом разделе создание новых тем Запрещено.
  • Для создания новых тем пользуйтесь Корневым разделом DVD и HD фильмы.
Начать новую темуОтветить на тему  [ 1 сообщение ] 
Торрент файл
Размер: 6.09 GB • Зарегистрирован: 1 год 11 месяцев • Статус: Проверено
Скачан: 165 раз • Желающих скачать: 0 • Поблагодарили: 29 раз
 Раздают: 0  |  0 KB/s  ]   Качают: 0  |  0 KB/s  ] 
 Полного источника не было 4 месяца 9 дней 
Сообщения
 Добавлено: 2012-09-12 22:44
DVD Release Group
Аватара пользователя
Стаж: 7 лет 1 месяц
Сообщений: 3546
Спасибок: 246983
Лайков: 1018
Немножко женаты

The Five-Year Engagement


Изображение


Год выпуска: 2012
Страна: США / Apatow Productions
Жанр: Мелодрама, комедия
Продолжительность: 02:04:27
Перевод: Профессиональный (полное дублирование)
Субтитры: Русские, английские, украинские
Режиссер: Николас Столлер
В ролях: Джейсон Сигел, Эмили Блант, Крис Прэтт, Элисон Бри, Лоурен Уидман, Мими Кеннеди, Дэвид Пэймер, Джеки Уивер, Джим Пиддок, Эрик Купер
Описание: Он — предложил, она — согласилась! Казалось бы, дело в шляпе — почти женаты. Но свадьба становится невыполнимой миссией, когда в дело вступает отряд бывших подружек жениха, босс невесты, трещащий по швам список гостей и престарелые родственники, имеющие тенденцию умирать в самый неподходящий момент. И вроде бы немножко женаты, но все как-то не до конца…
Кинопоиск: 6.2 (14520
IMDb: 6.4 (15927)
Дополнительно: Сохранены оригинальные чаптеры как на Blu-Ray.
Качество: BDRip 720p
Формат: MKV
Видео кодек: H.264
Аудио кодек: DTS
Видео: 1280x694 23.98fps 4598kbps
Аудио:
Audio Rus: 48kHz 6ch 755kbps
Audio Eng: 48kHz 6ch 1510kbps
"MediaInfo"
Формат : Matroska
Версия формата : Version 2
Размер файла : 6,09 Гбайт
Продолжительность : 2 ч. 4 м.
Общий поток : 7002 Кбит/сек
Название фильма : Немножко женаты
Дата кодирования : UTC 2012-09-12 10:55:55
Программа кодирования : mkvmerge v4.9.1 ('Ich will') сборка от Jul 11 2011 23:53:15
Библиотека кодирования : libebml v1.2.1 + libmatroska v1.1.1

Видео
Идентификатор : 1
Формат : AVC
Формат/Информация : Advanced Video Codec
Профиль формата : High@L4.1
Параметр CABAC формата : Да
Параметр ReFrames формата : 9 кадров
Идентификатор кодека : V_MPEG4/ISO/AVC
Продолжительность : 2 ч. 4 м.
Битрейт : 4598 Кбит/сек
Ширина : 1280 пикселей
Высота : 694 пикселя
Соотношение сторон : 16:9
Частота кадров : 23,976 кадра/сек
Цветовое пространство : YUV
Субдискретизация насыщенности : 4:2:0
Битовая глубина : 8 бит
Тип развёртки : Прогрессивная
Бит/(Пиксели*Кадры) : 0.216
Размер потока : 4,00 Гбайт (66%)
Заголовок : The Five-Year Engagement 2012 720p BluRay DTS x264-IRONCLUB
Библиотека кодирования : x264 core 125 r2200 999b753
Настройки программы : cabac=1 / ref=9 / deblock=1:-3:-3 / analyse=0x3:0x113 / me=umh / subme=11 / psy=1 / psy_rd=1.20:0.00 / mixed_ref=1 / me_range=32 / chroma_me=1 / trellis=2 / 8x8dct=1 / cqm=0 / deadzone=21,11 / fast_pskip=0 / chroma_qp_offset=-2 / threads=12 / lookahead_threads=2 / sliced_threads=0 / nr=0 / decimate=1 / interlaced=0 / bluray_compat=0 / constrained_intra=0 / bframes=9 / b_pyramid=2 / b_adapt=2 / b_bias=0 / direct=3 / weightb=1 / open_gop=0 / weightp=2 / keyint=250 / keyint_min=23 / scenecut=40 / intra_refresh=0 / rc_lookahead=40 / rc=crf / mbtree=0 / crf=17.0 / qcomp=0.60 / qpmin=10 / qpmax=69 / qpstep=4 / vbv_maxrate=50000 / vbv_bufsize=62500 / crf_max=0.0 / nal_hrd=none / ip_ratio=1.40 / pb_ratio=1.30 / aq=1:1.00
Язык : English
Коэффициенты матрицы : BT.709-5, BT.1361, IEC 61966-2-4 709, SMPTE RP177

Аудио #1
Идентификатор : 2
Формат : DTS
Формат/Информация : Digital Theater Systems
Идентификатор кодека : A_DTS
Продолжительность : 2 ч. 4 м.
Вид битрейта : Постоянный
Битрейт : 755 Кбит/сек
Каналы : 6 каналов
Расположение каналов : Front: L C R, Side: L R, LFE
Частота : 48,0 КГц
Битовая глубина : 24 бит
Метод сжатия : С потерями
Размер потока : 672 Мбайт (11%)
Заголовок : DTS 5.1 @ 768 kbps - Dub, BD CEE
Язык : Russian

Аудио #2
Идентификатор : 3
Формат : DTS
Формат/Информация : Digital Theater Systems
Идентификатор кодека : A_DTS
Продолжительность : 2 ч. 4 м.
Вид битрейта : Постоянный
Битрейт : 1510 Кбит/сек
Каналы : 6 каналов
Расположение каналов : Front: L C R, Side: L R, LFE
Частота : 48,0 КГц
Битовая глубина : 24 бит
Метод сжатия : С потерями
Размер потока : 1,31 Гбайт (22%)
Заголовок : DTS 5.1 @ 1536 kbps
Язык : English

Текст #1
Идентификатор : 4
Формат : UTF-8
Идентификатор кодека : S_TEXT/UTF8
Идентификатор кодека/Информация : UTF-8 Plain Text
Заголовок : Forced
Язык : Russian

Текст #2
Идентификатор : 5
Формат : UTF-8
Идентификатор кодека : S_TEXT/UTF8
Идентификатор кодека/Информация : UTF-8 Plain Text
Язык : Russian

Текст #3
Идентификатор : 6
Формат : UTF-8
Идентификатор кодека : S_TEXT/UTF8
Идентификатор кодека/Информация : UTF-8 Plain Text
Язык : Ukrainian

Текст #4
Идентификатор : 7
Формат : UTF-8
Идентификатор кодека : S_TEXT/UTF8
Идентификатор кодека/Информация : UTF-8 Plain Text
Заголовок : SDH
Язык : English

Меню
00:00:00.000 : en:00:00:00.000
00:06:55.373 : en:00:06:55.373
00:12:23.617 : en:00:12:23.617
00:17:45.773 : en:00:17:45.773
00:23:14.476 : en:00:23:14.476
00:29:03.658 : en:00:29:03.658
00:34:46.626 : en:00:34:46.626
00:39:08.387 : en:00:39:08.387
00:44:46.892 : en:00:44:46.892
00:50:13.844 : en:00:50:13.844
00:56:20.293 : en:00:56:20.293
01:02:18.484 : en:01:02:18.484
01:09:24.118 : en:01:09:24.118
01:17:04.161 : en:01:17:04.161
01:23:15.573 : en:01:23:15.573
01:31:34.739 : en:01:31:34.739
01:39:33.926 : en:01:39:33.926
01:44:52.244 : en:01:44:52.244
01:49:51.668 : en:01:49:51.668
01:56:54.382 : en:01:56:54.382
Свернуть

"Скриншоты"
Изображение
Изображение
Изображение
Свернуть

Раздача группы:
Изображение
Не в сети
Профиль  
Начать новую темуОтветить на тему  [ 1 сообщение ] 
Вы не можете начинать темы
Вы не можете отвечать на сообщения
Вы не можете редактировать свои сообщения
Вы не можете удалять свои сообщения