Правила форума

  • В этом разделе создание новых тем Запрещено.
  • Для создания новых тем пользуйтесь Корневым разделом DVD и HD фильмы.
Начать новую темуОтветить на тему  [ Сообщений: 3 ] 
Торрент файл
Размер: 13.95 GB • Зарегистрирован: 4 года 10 месяцев • Статус: Проверено
Скачан: 71 раз • Желающих скачать: 0 • Поблагодарили: 22 раза
 Раздают: 0  |  0 KB/s  ]   Качают: 0  |  0 KB/s  ] 
 Полного источника не было 9 часов 
Сообщения
 Добавлено: 2012-01-28 21:11
Модератор релиз-группы
Аватара пользователя
Стаж: 9 лет 1 месяц
Возраст: 97
Сообщений: 11660
Спасибок: 6534
Лайков: 269
Неоспоримый 2 / Undisputed 2: Last Man Standing
Изображение


Страна: США
Жанр: Криминал, спорт, драма
Год выпуска: 2006
Продолжительность: 01:37:36
Перевод: Профессиональный (многоголосый закадровый) R5

Режиссер: Айзек Флорентайн / Isaac Florentine

В ролях: Майкл Джей Уайт (Michael Jai White), Скотт Эдкинс (Scott Adkins), Бен Кросс (Ben Cross), Эли Данкер (Eli Danker), Марк Иванир (Mark Ivanir), Валентин Ганев (Valentin Ganev), Велизaр Бинев (Velizar Binev), Райчо Василев (Raicho Vasilev)

Описание: Бывший чемпион мира по боксу во время визита в Россию случайно попадает в криминальную разборку, связанную с высшими правительственными чинами и против него фабрикуется ложное дело. Дорога домой будет долгой и трудной, проходящей через суровую российскую тюрьму…
Изображение
Качество: BDRemux 1080p
Формат: MKV
Видео: WVC1 1920x1080 23.97 fps 20.1Mbps
Аудио:|RUS| Dolby AC3 48000Hz 6ch 448 Kbps / MVO
скриншоты
Изображение

Изображение

Изображение
Свернуть
Mi
Format : Matroska
Format version : Version 2
File size : 14.0 GiB
Duration : 1h 37mn
Overall bit rate : 20.5 Mbps
Movie name : Неоспоримый / Обсуждению не подлежит / Undisputed (2002) BDRemux 1080p by nextDred
Encoded date : UTC 2012-01-28 17:56:32
Writing application : mkvmerge v5.2.1 ('A Far Off Place') built on Jan 2 2012 23:21:10
Writing library : libebml v1.2.3 + libmatroska v1.3.0

Video
ID : 1
Format : VC-1
Format profile : AP@L3
Codec ID : WVC1
Codec ID/Hint : Microsoft
Duration : 1h 37mn
Bit rate : 19.6 Mbps
Width : 1 920 pixels
Height : 1 080 pixels
Display aspect ratio : 16:9
Frame rate : 23.976 fps
Chroma subsampling : 4:2:0
Bit depth : 8 bits
Scan type : Progressive
Compression mode : Lossy
Bits/(Pixel*Frame) : 0.394
Stream size : 13.4 GiB (96%)
Title : Undisputed II: Last Man Standing (2006) BDRemux 1080p by nextDred
Language : English
Default : No
Forced : No

Audio
ID : 2
Format : AC-3
Format/Info : Audio Coding 3
Mode extension : CM (complete main)
Codec ID : A_AC3
Duration : 1h 37mn
Bit rate mode : Constant
Bit rate : 448 Kbps
Channel(s) : 6 channels
Channel positions : Front: L C R, Side: L R, LFE
Sampling rate : 48.0 KHz
Bit depth : 16 bits
Compression mode : Lossy
Stream size : 313 MiB (2%)
Title : MVO
Language : Russian
Default : Yes
Forced : No

Menu
00:00:00.000 : en:00:00:00.000
00:12:48.893 : en:00:12:48.893
00:20:02.118 : en:00:20:02.118
00:26:09.067 : en:00:26:09.067
00:30:53.351 : en:00:30:53.351
00:39:56.936 : en:00:39:56.936
00:48:14.058 : en:00:48:14.058
00:52:31.648 : en:00:52:31.648
00:58:56.533 : en:00:58:56.533
01:03:05.907 : en:01:03:05.907
01:11:07.305 : en:01:11:07.305
01:15:51.464 : en:01:15:51.464
01:19:19.755 : en:01:19:19.755
01:21:45.567 : en:01:21:45.567
01:28:16.625 : en:01:28:16.625
01:34:01.219 : en:01:34:01.219

Свернуть
_________________
Изображение
Не в сети
Профиль  
 Добавлено: 2012-02-03 20:49 (спустя 5 дней)
Аватара пользователя
Стаж: 8 лет 11 месяцев
Сообщений: 213
Спасибок: 126
Вот это качество! Спасибо, качаю)
Не в сети
Профиль  
 Добавлено: 2013-02-02 00:00 (спустя 11 месяцев)
Аватара пользователя
Стаж: 4 года 5 месяцев
Возраст: 25
Сообщений: 61
Лайков: 2
встаньте на раздачу пожалуйста)))за ранее спасибо)))
_________________
потапов
Не в сети
Профиль  
Начать новую темуОтветить на тему  [ Сообщений: 3 ] 
Вы не можете начинать темы
Вы не можете отвечать на сообщения
Вы не можете редактировать свои сообщения
Вы не можете удалять свои сообщения