Правила форума

  • В этом разделе создание новых тем Запрещено.
  • Для создания новых тем пользуйтесь Корневым разделом DVD и HD фильмы.
Начать новую темуОтветить на тему  [ 1 сообщение ] 
Торрент файл
Размер: 10.33 GB • Зарегистрирован: 5 лет 8 месяцев • Статус: Проверено
Скачан: 25 раз • Желающих скачать: 0 • Поблагодарили: 3 раза
 Раздают: 0  |  0 KB/s  ]   Качают: 0  |  0 KB/s  ] 
 Полного источника не было 2 года 11 месяцев 
Сообщения
 Добавлено: 2011-03-18 10:04
Top-releaser
Аватара пользователя
Стаж: 7 лет 3 месяца
Возраст: 25
Сообщений: 1036
Спасибок: 2694
Лайков: 9
Неотразимая Тамара / Tamara Drewe

Изображение



Год выхода: 2010
Страна: Великобритания

Жанр: комедия
Продолжительность: 01:51:37
Перевод: Дублированное [лицензия]

Режиссер: Стивен Фрирз
Сценарий: Моира Буффини, Пози Симмондс
Продюсер: Элисон Оуэн, Трэйси Сиуорд, Пол Триджбитс
Оператор: Бен В. Дэвис
Композитор: Александр Деспла

В ролях: Джемма Артертон , Роджер Аллам, Билл Кэмп, Доминик Купер, Люк Эван, Тэмсин Грег, Джессика Барден, Шарлотта Кристи, Джеймс Ноти, Джон Бетт, Жозефин Тэйлор

Описание: Девица Тамара приезжает в свой родной дом, что находится в английской деревушке. Оказывается, что раньше она была страшненькой и носатой, но после пластической операции превратилась в секс-бомбу. В деревне живут в основном писатели, некоторые из них с трудом сохраняют верность, а некоторые вообще кукуют в полном одиночестве.
Тамара была бы и рада вернуться к своему подростковому увлечению, красавчику Энди, но случай сводит ее с ударником популярной группы, после чего события развиваются самым неожиданным образом.


Cборы в США: $560 101
Cборы в мире: + $8 424 122 = $8 984 223
Cборы в России: $175 158
KinoPoisk.ru: 6.685
IMDb.com: 6.5/10

pаздача группы:Изображение

Качество: BDRip 1080p R5
Формат: MKV
Видео: MPEG4 Video (H264) 1920x800 23.98fps
Аудио 1: Russian: AC3, 448 kb/s (6 ch)
Аудио 2: English: DTS, 1510 kb/s (6 ch)
Subtitle: English

Изображение

MediaInfo
General
Unique ID : 242884793199612082090493297408028357074 (0xB6B9E8DD3EEE929A9147BDA0AA8EB1D2)
Complete name : G:\ReLease\Neotrazimaja.Tamara.BDRip.(1080p).mkv
Format : Matroska
File size : 10.3 GiB
Duration : 1h 51mn
Overall bit rate : 13.2 Mbps
Encoded date : UTC 2011-03-16 22:56:20
Writing application : mkvmerge v3.4.0 ('Rapunzel') сборка от May 15 2010 09:38:20
Writing library : libebml v0.8.0 + libmatroska v0.9.0

Video
ID : 1
Format : AVC
Format/Info : Advanced Video Codec
Format profile : High@L4.1
Format settings, CABAC : Yes
Format settings, ReFrames : 5 frames
Format settings, GOP : M=4, N=16
Codec ID : V_MPEG4/ISO/AVC
Duration : 1h 51mn
Bit rate : 11.3 Mbps
Width : 1 920 pixels
Height : 800 pixels
Display aspect ratio : 2.40:1
Frame rate : 23.976 fps
Color space : YUV
Chroma subsampling : 4:2:0
Bit depth : 8 bits
Scan type : Progressive
Bits/(Pixel*Frame) : 0.307
Stream size : 8.59 GiB (83%)
Title : Tamara.Drewe.2010
Writing library : x264 core 107 r1766 f9f0035
Encoding settings : cabac=1 / ref=5 / deblock=1:-3:-3 / analyse=0x3:0x113 / me=umh / subme=10 / psy=1 / psy_rd=1.05:0.10 / mixed_ref=1 / me_range=32 / chroma_me=1 / trellis=2 / 8x8dct=1 / cqm=2 / deadzone=21,11 / fast_pskip=0 / chroma_qp_offset=-2 / threads=12 / sliced_threads=0 / nr=0 / decimate=1 / interlaced=0 / constrained_intra=0 / bframes=6 / b_pyramid=2 / b_adapt=2 / b_bias=0 / direct=3 / weightb=1 / open_gop=0 / weightp=2 / keyint=250 / keyint_min=23 / scenecut=40 / intra_refresh=0 / rc_lookahead=50 / rc=2pass / mbtree=1 / bitrate=11315 / ratetol=1.0 / qcomp=0.70 / qpmin=10 / qpmax=51 / qpstep=4 / cplxblur=20.0 / qblur=0.5 / vbv_maxrate=40000 / vbv_bufsize=30000 / ip_ratio=1.40 / aq=1:0.90 / nal_hrd=none
Language : English

Audio #1
ID : 2
Format : AC-3
Format/Info : Audio Coding 3
Mode extension : CM (complete main)
Codec ID : A_AC3
Duration : 1h 51mn
Bit rate mode : Constant
Bit rate : 448 Kbps
Channel(s) : 6 channels
Channel positions : Front: L C R, Side: L R, LFE
Sampling rate : 48.0 KHz
Bit depth : 16 bits
Compression mode : Lossy
Stream size : 358 MiB (3%)
Language : Russian

Audio #2
ID : 3
Format : DTS
Format/Info : Digital Theater Systems
Codec ID : A_DTS
Duration : 1h 51mn
Bit rate mode : Constant
Bit rate : 1 510 Kbps
Channel(s) : 6 channels
Channel positions : Front: L C R, Side: L R, LFE
Sampling rate : 48.0 KHz
Bit depth : 24 bits
Compression mode : Lossy
Stream size : 1.18 GiB (11%)
Title : DTS-CORE 1536K
Language : English

Text
ID : 4
Format : UTF-8
Codec ID : S_TEXT/UTF8
Codec ID/Info : UTF-8 Plain Text
Language : English


Свернуть
Скриншоты
Изображение
Изображение
Изображение
Изображение
Изображение
Свернуть





Не в сети
Профиль  
Начать новую темуОтветить на тему  [ 1 сообщение ] 
Вы не можете начинать темы
Вы не можете отвечать на сообщения
Вы не можете редактировать свои сообщения
Вы не можете удалять свои сообщения