Правила форума

  • В этом разделе создание новых тем Запрещено.
  • Для создания новых тем пользуйтесь Корневым разделом DVD и HD фильмы.
Начать новую темуОтветить на тему  [ Сообщений: 2 ] 
Торрент файл
Размер: 5.54 GB • Зарегистрирован: 4 года 8 месяцев • Статус: Проверено
Скачан: 73 раза • Желающих скачать: 0 • Поблагодарили: 9 раз
 Раздают: 0  |  0 KB/s  ]   Качают: 0  |  0 KB/s  ] 
 Полного источника не было 1 год 11 месяцев 
Сообщения
 Добавлено: 2012-03-24 16:14
Аватара пользователя
Стаж: 7 лет 9 месяцев
Сообщений: 84
Спасибок: 69
Лайков: 5
Неприкасаемые / Intouchables

Изображение


Год выпуска: 2011
Страна: Франция (Quad Productions, Chaocorp, Gaumont)
Жанр: драма, комедия
Продолжительность: 01:52:02
Перевод: Одноголосый закадровый zamez + Оригинальная звуковая дорожка
Субтитры: русские перевод Татьяны Фалимоновой

Режиссёр: Оливье Накаш, Эрик Толедано / Olivier Nakache, Eric Toledano
Сценарист: Оливье Накаш, Эрик Толедано / Olivier Nakache, Eric Toledano
Продюсер: Николя Дюваль-Адассовски, Лорен Зэйтун, Ян Зеноу
Оператор: Матьё Вадпьед
Композитор: Людовико Эйнауди
В ролях: Франсуа Клюзе, Омар Сай, Анн Ле Ни, Одри Флеро, Клотильд Молле, Альба Гайя Крагеде Беллуджи, Сирил Менди, Кристиан Амери, Грегуар Эстерманн, Жозефин де Мо
Описание: Пострадав в результате несчастного случая, богатый аристократ Филип нанимает в помощники человека, который менее всего подходит для этой работы, — молодого жителя предместья Дрисса, только что освободившегося из тюрьмы. Несмотря на то, что Филип прикован к инвалидному креслу, Дриссу удается привнести в размеренную жизнь аристократа дух приключений.
Доп.информация: Перевод фильма осуществлен Татьяной Фалимоновой по слуху с французского языка. Предыдущие переводы этого фильма были сделаны с английских субтитров, что очень исказило смысл большинства диалогов и фраз, а также из речи персонажей исчезла игра слов. Мы постарались устранить эти недостатки. Мы приносим благодарность "первопроходцу" Anthony Fly, его перевод служил подсказкой в сложных моментах фильма, а некоторые его находки очень облегчили нашу задачу.
Мировая премьера: 23 сентября 2011 Испания Международный кинофестиваль в Сан-Себастьяне
Премьера в России: 26 апреля 2012, «Каскад»
Кассовые сборы: $281 000 000
Изображение 8.857 (6 205) Top: №11 
Изображение 8.40 (13 511) Top: №189

Качество: BDRip 720p [LOST]
Контейнер: MKV
Видео: AVC, 1280x688, 16:9, 24.000 fps, 4066 kbps
Аудио #1: DTS, 48 kHz, 1510 kbps, 3/2 (L,C,R,l,r) + LFE ch [Одноголосый закадровый zamez]
Аудио #2: DTS, 48 kHz, 1510 kbps, 3/2 (L,C,R,l,r) + LFE ch [Оригинальная звуковая дорожка]
Формат субтитров: softsub (SRT)
MediaInfo
Общее
Уникальный идентификатор : 193591625302653057625094360422806065876 (0x91A4640C78A8C4918929EC01D3FA12D4)
Полное имя : D:\Downloads\Intouchables.2011.BDRip.720p.mkv
Формат : Matroska
Версия формата : Version 2
Размер файла : 5,54 Гбайт
Продолжительность : 1 ч. 52 м.
Общий поток : 7085 Кбит/сек
Дата кодирования : UTC 2012-03-23 12:54:01
Программа кодирования : mkvmerge v5.2.1 ('A Far Off Place') built on Jan 2 2012 23:21:10
Библиотека кодирования : libebml v1.2.3 + libmatroska v1.3.0

Видео
Идентификатор : 1
Формат : AVC
Формат/Информация : Advanced Video Codec
Профиль формата : High@L4.1
Параметр CABAC формата : Да
Параметр ReFrames формата : 5 кадров
Идентификатор кодека : V_MPEG4/ISO/AVC
Продолжительность : 1 ч. 52 м.
Битрейт : 4066 Кбит/сек
Ширина : 1280 пикселей
Высота : 688 пикселей
Соотношение сторон : 1,860
Частота кадров : 24,000 кадра/сек
Цветовое пространство : YUV
Субдискретизация насыщенности : 4:2:0
Битовая глубина : 8 бит
Тип развёртки : Прогрессивная
Бит/(Пиксели*Кадры) : 0.192
Размер потока : 3,07 Гбайт (55%)
Библиотека кодирования : x264 core 120 r2164 da19765
Настройки программы : cabac=1 / ref=5 / deblock=1:0:0 / analyse=0x3:0x113 / me=umh / subme=7 / psy=1 / psy_rd=1.00:0.15 / mixed_ref=1 / me_range=16 / chroma_me=1 / trellis=1 / 8x8dct=1 / cqm=0 / deadzone=21,11 / fast_pskip=0 / chroma_qp_offset=-3 / threads=6 / sliced_threads=0 / nr=0 / decimate=1 / interlaced=0 / bluray_compat=0 / constrained_intra=0 / bframes=3 / b_pyramid=2 / b_adapt=1 / b_bias=0 / direct=1 / weightb=1 / open_gop=0 / weightp=2 / keyint=250 / keyint_min=24 / scenecut=40 / intra_refresh=0 / rc_lookahead=40 / rc=2pass / mbtree=1 / bitrate=4066 / ratetol=1.0 / qcomp=0.60 / qpmin=0 / qpmax=69 / qpstep=4 / cplxblur=20.0 / qblur=0.5 / ip_ratio=1.40 / aq=1:1.00
Язык : English
Default : Да
Forced : Нет

Аудио #1
Идентификатор : 2
Формат : DTS
Формат/Информация : Digital Theater Systems
Идентификатор кодека : A_DTS
Продолжительность : 1 ч. 52 м.
Вид битрейта : Постоянный
Битрейт : 1510 Кбит/сек
Каналы : 6 каналов
Расположение каналов : Front: L C R, Side: L R, LFE
Частота : 48,0 КГц
Битовая глубина : 24 бит
Метод сжатия : С потерями
Размер потока : 1,18 Гбайт (21%)
Заголовок : zamez
Язык : Russian
Default : Да
Forced : Нет

Аудио #2
Идентификатор : 3
Формат : DTS
Формат/Информация : Digital Theater Systems
Идентификатор кодека : A_DTS
Продолжительность : 1 ч. 52 м.
Вид битрейта : Постоянный
Битрейт : 1510 Кбит/сек
Каналы : 6 каналов
Расположение каналов : Front: L C R, Side: L R, LFE
Частота : 48,0 КГц
Битовая глубина : 24 бит
Метод сжатия : С потерями
Размер потока : 1,18 Гбайт (21%)
Заголовок : Original
Язык : French
Default : Нет
Forced : Нет

Текст
Идентификатор : 4
Формат : UTF-8
Идентификатор кодека : S_TEXT/UTF8
Идентификатор кодека/Информация : UTF-8 Plain Text
Язык : Russian
Default : Да
Forced : Нет

Меню
00:00:00.000 : en:00:00:00.000
00:07:26.000 : en:00:07:26.000
00:12:54.375 : en:00:12:54.375
00:18:56.667 : en:00:18:56.667
00:26:51.958 : en:00:26:51.958
00:30:50.708 : en:00:30:50.708
00:37:26.208 : en:00:37:26.208
00:42:05.667 : en:00:42:05.667
00:48:45.333 : en:00:48:45.333
00:54:26.250 : en:00:54:26.250
00:58:02.708 : en:00:58:02.708
01:04:06.833 : en:01:04:06.833
01:14:27.042 : en:01:14:27.042
01:21:39.833 : en:01:21:39.833
01:29:26.125 : en:01:29:26.125
01:35:56.875 : en:01:35:56.875
01:40:22.042 : en:01:40:22.042
01:45:12.542 : en:01:45:12.542
Свернуть
Скриншоты
Изображение
Изображение
Изображение
Изображение
Свернуть


Последний раз редактировалось Amrin@ 2012-03-25 10:13, всего редактировалось 7 раз(а).
Не в сети
Профиль  
 Добавлено: 2012-03-24 17:36 (спустя 1 час 21 минута)
Аватара пользователя
Стаж: 8 лет 3 месяца
Возраст: 43
Сообщений: 3290
Спасибок: 21012
Лайков: 3
Amrin@
Для HD и HQRip-ов необходимы скриншоты в формате PNG, для остальных форматов PNG так же рекомендуется.
Внимание: Для DVD и HD-разделов необходимы развернутые технические данные:
Для DVD: Отчет DVDInfo (под спойлером)
DVDInfo

Cкрытый текст
Изображение
Свернуть
Назначение - быстрое получение информации о DVD-диске или отдельных его title-set'ах.
Использование:
- запустить программу и в открывшемся окне выбора директории выбрать VIDEO_TS диру на диске или на харде, где находится VIDEO_TS.IFO.
- дать в командной строке параметром путь к директории, где лежит VIDEO_TS.IFO на диске или на харде
- дать в командной строке полный путь к любому IFO-файлу
- воспользоваться расширением эксплорера и выбрать новый пункт в выпадающем по правой кнопке меню файла.
- ассоциировать в TotalCommander-е с расширением IFO на кнопку Alt+F3 (ну или любую другую в любом другом файл-менеджере)
- перенаправить информацию в текстовый файл, задав определенные параметры в командной строке (список параметров выдается если задать параметр /?) и поставить в конце ">file.txt". [Внимание! Программа ничего не выдает на вызывающую ее консоль, это не консольная аппликация. Данный режим только для перенаправления информации в файл.]
- использовать информационный модуль, сделанный в виде ActiveX-компоненты и который собственно и вытаскивает инфу из файлов, в своей собственной программе smileold.gif

Если программа получит путь к VIDEO_TS.IFO, то покажет инфу по всем найденным VTS, относящемся к выбранному ДВД. Если же к конкретному VTS.IFO - то только о нем.

Программа работает только с IFO-файлами, не делая анализа VOB-ов, поэтому информация типа делеев дорожеи или других подробностей, нее относящихся к IFO - не выдает. Короче то, что она показывает, можно получить и в IfoEdit-е winkold.gif.

Обновление версии программы до 1.1.0!
* Окно программы стало Drag-n-Drop-ным, то есть принимает дроп-нутый на него линк на файл.
* Окно программы опционально может быть "Always on top".
* Сохраняется последнее местоположение окна программы и в следующий раз оно открывается на том же месте (опционально).
* Максимальное количество возможных PGC увеличено с 25 до 100.
* Автоматически из списка VTS выбирается тот, который содержит максимально длинный видеофрагмент.
* Показываются VTS PUOs (Prohibited User Operations - если они имеются конечно).
* Для каждого VTS показываются длины входящих в него PGC (если их больше одного).
* Исправлено некорректное определение DTS дорожки.
* Более корректно показывается количество аудио и видеодорожек (в тех сборках, которые сделаны с несоблюдением соответствия количества в разных IFO файлах).
* Исправлено - не открывалось окно выбора при нажатии Ctrl+O.
* Изменено - при отказе от первоначального выбора диска/директории окно закрывалось, теперь остается открытым с отсутствующей информацией.

Скачать с офсайта
Свернуть

Для HD: Отчет BDInfo→ (после нажатия кнопки «scan bitrates» и окончания сканирования) или MediaInfo→ ( весь текст из режима view (вид) → text (текст).) (под спойлером)
Исправьте пожалуйста :)
Как все исправите, то сообщите пожалуйста мне или любому модератору видео, обязательно со ссылкой на релиз
_________________
Изображение
Не в сети
Профиль  
Начать новую темуОтветить на тему  [ Сообщений: 2 ] 
Вы не можете начинать темы
Вы не можете отвечать на сообщения
Вы не можете редактировать свои сообщения
Вы не можете удалять свои сообщения