Правила форума

  • В этом разделе создание новых тем Запрещено.
  • Для создания новых тем пользуйтесь Корневым разделом DVD и HD фильмы.
Начать новую темуОтветить на тему  [ Сообщений: 4 ] 
Торрент файл
Размер: 9.12 GB • Зарегистрирован: 1 год 8 месяцев • Статус: Проверено
Скачан: 402 раза • Желающих скачать: 0 • Поблагодарили: 64 раза
 Раздают: 4  |  0 KB/s  ]   Качают: 0  |  0 KB/s  ] 
Сообщения
 Добавлено: 2015-03-17 02:46
DVD Release Group
Аватара пользователя
Стаж: 7 лет 1 месяц
Сообщений: 3541
Спасибок: 246625
Лайков: 1016
Несломленный

Unbroken


Изображение


Год выпуска: 2014
Страна: США
Жанр: Драма, военный, биография, спорт
Продолжительность: 02:17:28
Перевод: Профессиональный (полное дублирование)
Субтитры: Английские
Режиссер: Анджелина Джоли
В ролях: Джек О'Коннелл, Донал Глисон, Такамаса Исихара, Гаррет Хедлунд, Финн Уиттрок, Мэттью Крокер, Джай Кортни, Маддалена Искьяле, Винченцо Амато, Джон Магаро
Описание: Фильм основан на реальных событиях и рассказывает об американце Луи Замперини, который принимал участие в Олимпийских играх 1936 года в Берлине. Он не одержал победу в финальном забеге, но, по какой-то причине, снискал расположение Гитлера, который пригласил его к себе в ложу. Предполагалось, что Замперини примет участие и в следующих Олимпийских играх, но из-за начала Второй мировой войны он был вынужден отправиться на фронт. Его самолет был сбит над Японией, а сам Замперини попал в плен к японцам, где пережил многочисленные пытки. Домой он вернулся уже лишь после окончания войны.
ИзображениеИзображение
Качество: BDRip 1080p
Формат: AVI
Видео кодек: XviD
Аудио кодек: AC3
Видео: 1920х800 23.98fps 8468kbps
Аудио:
Аудио Rus: 48kHz 6ch 384kbps
Аудио Eng: 48kHz 6ch 640kbps
"MediaInfo"
Формат : Matroska
Версия формата : Version 4 / Version 2
Размер файла : 9,12 Гбайт
Продолжительность : 2 ч. 17 м.
Общий поток : 9493 Кбит/сек
Дата кодирования : UTC 2015-03-16 22:04:31
Программа кодирования : mkvmerge v7.6.0 ('Garden of Dreams') 32bit built on Feb 8 2015 12:51:39
Библиотека кодирования : libebml v1.3.1 + libmatroska v1.4.2
DURATION : 02:06:58.860000000
NUMBER_OF_FRAMES : 817
NUMBER_OF_BYTES : 19345
_STATISTICS_WRITING_APP : mkvmerge v7.6.0 ('Garden of Dreams') 32bit built on Feb 8 2015 12:51:39
_STATISTICS_WRITING_DATE_UTC : 2015-03-16 22:04:31
_STATISTICS_TAGS : BPS DURATION NUMBER_OF_FRAMES NUMBER_OF_BYTES

Видео
Идентификатор : 1
Формат : AVC
Формат/Информация : Advanced Video Codec
Профиль формата : High@L4.1
Параметр CABAC формата : Да
Параметр ReFrames формата : 5 кадров
Идентификатор кодека : V_MPEG4/ISO/AVC
Продолжительность : 2 ч. 17 м.
Битрейт : 8468 Кбит/сек
Ширина : 1920 пикселей
Высота : 800 пикселей
Соотношение сторон : 2,40:1
Режим частоты кадров : Постоянный
Частота кадров : 23,976 кадра/сек
Цветовое пространство : YUV
Субдискретизация насыщенности : 4:2:0
Битовая глубина : 8 бит
Тип развёртки : Прогрессивная
Бит/(Пиксели*Кадры) : 0.230
Размер потока : 7,95 Гбайт (87%)
Библиотека кодирования : x264 core 146 r2538 121396c
Настройки программы : cabac=1 / ref=5 / deblock=1:-3:-3 / analyse=0x3:0x113 / me=umh / subme=8 / psy=1 / psy_rd=1.00:0.00 / mixed_ref=1 / me_range=16 / chroma_me=1 / trellis=1 / 8x8dct=1 / cqm=0 / deadzone=21,11 / fast_pskip=1 / chroma_qp_offset=-2 / threads=12 / lookahead_threads=2 / sliced_threads=0 / nr=0 / decimate=1 / interlaced=0 / bluray_compat=0 / constrained_intra=0 / bframes=3 / b_pyramid=2 / b_adapt=2 / b_bias=0 / direct=3 / weightb=1 / open_gop=0 / weightp=2 / keyint=240 / keyint_min=24 / scenecut=40 / intra_refresh=0 / rc_lookahead=50 / rc=2pass / mbtree=1 / bitrate=8468 / ratetol=1.0 / qcomp=0.60 / qpmin=0 / qpmax=69 / qpstep=4 / cplxblur=20.0 / qblur=0.5 / ip_ratio=1.40 / aq=1:1.00
Язык : English
Default : Да
Forced : Нет
DURATION : 02:17:28.491000000
NUMBER_OF_FRAMES : 197766
NUMBER_OF_BYTES : 8729872135
_STATISTICS_WRITING_APP : mkvmerge v7.6.0 ('Garden of Dreams') 32bit built on Feb 8 2015 12:51:39
_STATISTICS_WRITING_DATE_UTC : 2015-03-16 22:04:31
_STATISTICS_TAGS : BPS DURATION NUMBER_OF_FRAMES NUMBER_OF_BYTES

Аудио #1
Идентификатор : 2
Формат : AC-3
Формат/Информация : Audio Coding 3
Расширение режима : CM (complete main)
Параметр Endianness формата : Big
Идентификатор кодека : A_AC3
Продолжительность : 2 ч. 17 м.
Вид битрейта : Постоянный
Битрейт : 384 Кбит/сек
Каналы : 6 каналов
Расположение каналов : Front: L C R, Side: L R, LFE
Частота : 48,0 КГц
Битовая глубина : 16 бит
Метод сжатия : С потерями
Задержка видео : 18 мс.
Размер потока : 378 Мбайт (4%)
Default : Да
Forced : Нет

Аудио #2
Идентификатор : 3
Формат : AC-3
Формат/Информация : Audio Coding 3
Расширение режима : CM (complete main)
Параметр Endianness формата : Big
Идентификатор кодека : A_AC3
Продолжительность : 2 ч. 17 м.
Вид битрейта : Постоянный
Битрейт : 640 Кбит/сек
Каналы : 6 каналов
Расположение каналов : Front: L C R, Side: L R, LFE
Частота : 48,0 КГц
Битовая глубина : 16 бит
Метод сжатия : С потерями
Размер потока : 629 Мбайт (7%)
Язык : English
Default : Нет
Forced : Нет

Текст #1
Идентификатор : 4
Формат : UTF-8
Идентификатор кодека : S_TEXT/UTF8
Идентификатор кодека/Информация : UTF-8 Plain Text
Заголовок : SDH
Язык : English
Default : Нет
Forced : Нет

Текст #2
Идентификатор : 5
Формат : UTF-8
Идентификатор кодека : S_TEXT/UTF8
Идентификатор кодека/Информация : UTF-8 Plain Text
Язык : English
Default : Нет
Forced : Нет

Меню
00:00:00.000 : en:00:00:00.000
00:08:21.042 : en:00:08:21.042
00:13:23.803 : en:00:13:23.803
00:20:05.371 : en:00:20:05.371
00:27:16.969 : en:00:27:16.969
00:31:41.066 : en:00:31:41.066
00:37:22.657 : en:00:37:22.657
00:44:47.143 : en:00:44:47.143
00:49:56.952 : en:00:49:56.952
00:59:48.585 : en:00:59:48.585
01:10:16.295 : en:01:10:16.295
01:17:03.911 : en:01:17:03.911
01:21:50.989 : en:01:21:50.989
01:28:27.677 : en:01:28:27.677
01:32:41.514 : en:01:32:41.514
01:38:30.446 : en:01:38:30.446
01:44:09.994 : en:01:44:09.994
01:53:10.617 : en:01:53:10.617
02:01:39.167 : en:02:01:39.167
02:11:38.349 : en:02:11:38.349
Свернуть

"Скриншоты"
Изображение
Изображение
Изображение
Свернуть
 dVision и WISHMASTER23 нравится это.
Не в сети
Профиль  
 Добавлено: 2015-03-17 22:36 (спустя 19 часов)
Аватара пользователя
Стаж: 8 лет 3 месяца
Возраст: 33
Сообщений: 319
Спасибок: 602
Лайков: 34
Хорошее :'(
Не в сети
Профиль  
 Добавлено: 2015-04-03 22:17 (спустя 16 дней)
Аватара пользователя
Стаж: 7 лет 3 месяца
Сообщений: 52
Спасибок: 19
Лайков: 11
Нормуль!
Правда чувствуется женская рука приложена)
Не в сети
Профиль  
 Добавлено: 2015-04-26 22:11 (спустя 22 дня)
Кинокомментатор
Аватара пользователя
Стаж: 9 лет
Сообщений: 1331
Лайков: 52
по моему очень сильное кино) и джоли удивила!) в общем смотреть конечно стоит!) 8/10
_________________
Я ВКонтакте
Не в сети
Профиль  
Начать новую темуОтветить на тему  [ Сообщений: 4 ] 
Вы не можете начинать темы
Вы не можете отвечать на сообщения
Вы не можете редактировать свои сообщения
Вы не можете удалять свои сообщения