Правила форума

  • В этом разделе создание новых тем Запрещено.
  • Для создания новых тем пользуйтесь Корневым разделом DVD и HD фильмы.
Начать новую темуОтветить на тему  [ Сообщений: 4 ] 
Торрент файл
Размер: 11.04 GB • Зарегистрирован: 1 год 9 месяцев • Статус: Проверено
Скачан: 355 раз • Желающих скачать: 0 • Поблагодарили: 60 раз
 Раздают: 1  |  0 KB/s  ]   Качают: 0  |  0 KB/s  ] 
Сообщения
 Добавлено: 2015-02-12 18:44
Модератор
Аватара пользователя
Стаж: 5 лет 8 месяцев
Сообщений: 6281
Спасибок: 17335
Лайков: 1633
Несносные боссы 2
Horrible Bosses 2

Изображение
Год выпуска: 2014
Страна: США
Жанр: Комедия
Продолжительность: 01:48:21
Перевод: Профессиональный (полное дублирование) Лицензия
Режиссер: Шон Андерс
В ролях: Джейсон Бейтман, Джейсон Судейкис, Чарли Дэй, Крис Пайн, Дженнифер Энистон, Кристоф Вальц, Джейми Фокс, Кевин Спейси, Джонатан Бэнкс, Линдсей Слоун
Описание: Ник, Дэйл и Курт решают сами стать боссами и открывают собственный бизнес. Но инвестор кидает их. Тогда они решают похитить его взрослого сына, чтобы получить выкуп и вернуть себе контроль над компанией.
ИзображениеИзображение
Качество: BDRip 1080p
Формат: MKV
Видео: MPEG-4 AVC, 12.40 Мбит/с, 1920x800
Аудио 1: Русский (AC3, 6 ch, 384 Кбит/с)
Аудио 2: Aнглийский (DTS, 6 ch, 1510 Кбит/с)
Субтитры: English
Дополнительно: Сохранены оригинальные чаптеры
"Скриншоты"
ИзображениеИзображениеИзображение
Свернуть
MI
General
Unique ID : 178747674654903494917030828946903782498 (0x86798CC6F3605F64A54963F3D5F3D462)
Complete name : Nesnosn1e.B0ss1.2014.D.BDRip.1080p.mkv
Format : Matroska
Format version : Version 2
File size : 11.0 GiB
Duration : 1h 48mn
Overall bit rate : 14.6 Mbps
Encoded date : UTC 2015-02-12 07:15:31
Writing application : mkvmerge v7.6.0 ('Garden of Dreams') 64bit built on Feb 8 2015 13:04:34
Writing library : libebml v1.3.1 + libmatroska v1.4.2
_STATISTICS_WRITING_APP : mkvmerge v7.6.0 ('Garden of Dreams') 64bit built on Feb 8 2015 13:04:34
_STATISTICS_WRITING_DATE_UTC : 2015-02-12 07:15:31
_STATISTICS_TAGS : BPS DURATION NUMBER_OF_FRAMES NUMBER_OF_BYTES
DURATION : 01:48:26.375000000
NUMBER_OF_FRAMES : 155997
NUMBER_OF_BYTES : 10286923117

Video
ID : 1
Format : AVC
Format/Info : Advanced Video Codec
Format profile : High@L4.1
Format settings, CABAC : Yes
Format settings, ReFrames : 4 frames
Codec ID : V_MPEG4/ISO/AVC
Duration : 1h 48mn
Bit rate : 12.4 Mbps
Width : 1 920 pixels
Height : 800 pixels
Display aspect ratio : 2.40:1
Frame rate mode : Constant
Frame rate : 23.976 fps
Color space : YUV
Chroma subsampling : 4:2:0
Bit depth : 8 bits
Scan type : Progressive
Bits/(Pixel*Frame) : 0.336
Stream size : 9.38 GiB (85%)
Default : Yes
Forced : No

Audio #1
ID : 2
Format : AC-3
Format/Info : Audio Coding 3
Mode extension : CM (complete main)
Format settings, Endianness : Big
Codec ID : A_AC3
Duration : 1h 48mn
Bit rate mode : Constant
Bit rate : 384 Kbps
Channel(s) : 6 channels
Channel positions : Front: L C R, Side: L R, LFE
Sampling rate : 48.0 KHz
Bit depth : 16 bits
Compression mode : Lossy
Stream size : 298 MiB (3%)
Language : Russian
Default : Yes
Forced : No

Audio #2
ID : 3
Format : DTS
Format/Info : Digital Theater Systems
Mode : 16
Format settings, Endianness : Big
Codec ID : A_DTS
Duration : 1h 48mn
Bit rate mode : Constant
Bit rate : 1 509 Kbps
Channel(s) : 6 channels
Channel positions : Front: L C R, Side: L R, LFE
Sampling rate : 48.0 KHz
Bit depth : 24 bits
Compression mode : Lossy
Stream size : 1.14 GiB (10%)
Language : English
Default : No
Forced : No

Text
ID : 4
Format : PGS
Muxing mode : zlib
Codec ID : S_HDMV/PGS
Codec ID/Info : The same subtitle format used on BDs/HD-DVDs
Language : English
Default : No
Forced : No

Menu
00:00:00.000 : en:Chapter 1
00:06:52.161 : en:Chapter 2
00:18:51.880 : en:Chapter 3
00:28:37.549 : en:Chapter 4
00:38:21.799 : en:Chapter 5
00:47:15.749 : en:Chapter 6
00:56:34.015 : en:Chapter 7
01:05:24.169 : en:Chapter 8
01:13:48.340 : en:Chapter 9
01:21:49.988 : en:Chapter 10
01:29:31.866 : en:Chapter 11
01:36:27.322 : en:Chapter 12
01:39:43.143 : en:Chapter 13
Свернуть
_________________
Изображение Изображение Изображение
Не в сети
Профиль  
 Добавлено: 2015-02-12 22:27 (спустя 3 часа)
Стаж: 2 года 8 месяцев
Сообщений: 3
iTunes-это не Лицензия!
Не в сети
Профиль  
 Добавлено: 2015-02-12 23:22 (спустя 55 минут)
Модератор
Аватара пользователя
Стаж: 5 лет 8 месяцев
Сообщений: 6281
Спасибок: 17335
Лайков: 1633

Алексий2014:

iTunes-это не Лицензия!
Кто вам такую глупость сказал? :)
iTunes вообще-то тоже лицензия, перевод такой же, как на лицензионном Blu-Ray и такой же, как в кинотеатрах, только качество звука похуже (алгоритм кодировки сильнее сжимает у iTunes и поэтому у айтюнсовской дорожки звук хуже).
_________________
Изображение Изображение Изображение
 Prov1zoR нравится это.
Не в сети
Профиль  
 Добавлено: 2015-02-13 10:44 (спустя 11 часов)
Аватара пользователя
Стаж: 8 лет 2 месяца
Возраст: 38
Сообщений: 94
Спасибок: 24
Заметил, что у айтюнса изображение темнее, чем на рипе. Возможно и видео ужимают
Не в сети
Профиль  
Начать новую темуОтветить на тему  [ Сообщений: 4 ] 
Вы не можете начинать темы
Вы не можете отвечать на сообщения
Вы не можете редактировать свои сообщения
Вы не можете удалять свои сообщения