Правила форума

  • В этом разделе создание новых тем Запрещено.
  • Для создания новых тем пользуйтесь Корневым разделом DVD и HD фильмы.
Начать новую темуОтветить на тему  [ Сообщений: 11 ] 
Торрент файл
Размер: 9.04 GB • Зарегистрирован: 5 лет 1 месяц • Статус: Проверено
Скачан: 427 раз • Желающих скачать: 0 • Поблагодарили: 74 раза
 Раздают: 1  |  0 KB/s  ]   Качают: 0  |  0 KB/s  ] 
Сообщения
 Добавлено: 2011-10-22 15:28
Модератор релиз-группы
Аватара пользователя
Стаж: 9 лет 1 месяц
Возраст: 97
Сообщений: 11659
Спасибок: 6532
Лайков: 269
Несносные боссы / Horrible Bosses

Изображение

Год выхода: 2011
Страна: сша
Жанр: Комедия
Продолжительность: 01:45:36
Перевод: Дублированный
Любительский одноголосый, А. Киреев по переводу Гоблина
Оригинальная звуковая дорожка
Субтитры: русские (на места без перевода), английские
Режиссер: Сет Гордон
В ролях: Джейсон Бейтман, Дженнифер Энистон, Колин Фаррелл, Йоан Гриффит, Кевин Спейси, Стив Виб, П.Дж. Бирн, Чарли Дэй, Линдсэй Слоун, Мишель Албала, Джейсон Судейкис, Реджинальд Баллард и др.

Описание: Три главных героя вроде нормальные парни и славные труженики. Но их должностные обязанности давно выходят за рамки, и все хорошо, если бы не их вредные начальники, которые не дают покоя и все время чем-то недовольны. Когда такие «капризы» начинают вторгаться в личную жизнь и ставят под угрозу личное счастье, товарищи задумываются: не избавиться ли от назойливых, несносных боссов?
Примечание: EXTENDED-версия не выходила в дубляже. Отсутствует около 8 минут перевода!
Изображение
Качество: BDRip
Формат: MKV
Видео: MPEG-4(AVC), ~8844 Kbps, 23.976 fps, 1920x800
Аудио: AC3, 384 kb/s, 6 ch, 48 КГц, 16 бит [Дубляж]
Аудио #2: DTS, 1536 kb/s, 6 ch, 48 КГц, 24 бит [Любительский одноголосый, А. Киреев по переводу Гоблина]
Аудио #3: English: DTS, 1510 kbps (6 ch) [Оригинальная звуковая дорожка]
Субтитры: русские (на места без перевода), английские
скриншоты
Изображение

Изображение

Изображение

Изображение

Свернуть
Mi
Format : Matroska
Format version : Version 2
File size : 9.04 GiB
Duration : 1h 45mn
Overall bit rate : 12.3 Mbps
Movie name : -=R.G.Bee-Media=-
Encoded date : UTC 2011-10-22 12:15:32
Writing application : mkvmerge v5.0.1 ('Es ist Sommer') built on Oct 9 2011 11:55:43
Writing library : libebml v1.2.2 + libmatroska v1.3.0

Video
ID : 1
Format : AVC
Format/Info : Advanced Video Codec
Format profile : High@L4.1
Format settings, CABAC : Yes
Format settings, ReFrames : 5 frames
Codec ID : V_MPEG4/ISO/AVC
Duration : 1h 45mn
Bit rate : 8 844 Kbps
Width : 1 920 pixels
Height : 800 pixels
Display aspect ratio : 2.40:1
Frame rate : 23.976 fps
Color space : YUV
Chroma subsampling : 4:2:0
Bit depth : 8 bits
Scan type : Progressive
Bits/(Pixel*Frame) : 0.240
Stream size : 6.35 GiB (70%)
Writing library : x264 core 118 r2085 8a62835
Encoding settings : cabac=1 / ref=5 / deblock=1:0:0 / analyse=0x3:0x133 / me=umh / subme=8 / psy=1 / psy_rd=1.00:0.00 / mixed_ref=1 / me_range=16 / chroma_me=1 / trellis=1 / 8x8dct=1 / cqm=0 / deadzone=21,11 / fast_pskip=0 / chroma_qp_offset=-2 / threads=12 / sliced_threads=0 / nr=0 / decimate=1 / interlaced=0 / bluray_compat=0 / constrained_intra=0 / bframes=3 / b_pyramid=2 / b_adapt=2 / b_bias=0 / direct=3 / weightb=1 / open_gop=0 / weightp=2 / keyint=250 / keyint_min=23 / scenecut=40 / intra_refresh=0 / rc_lookahead=50 / rc=2pass / mbtree=1 / bitrate=8844 / ratetol=1.0 / qcomp=0.60 / qpmin=0 / qpmax=69 / qpstep=4 / cplxblur=20.0 / qblur=0.5 / ip_ratio=1.40 / aq=1:1.00
Language : English

Audio #1
ID : 3
Format : AC-3
Format/Info : Audio Coding 3
Mode extension : CM (complete main)
Codec ID : A_AC3
Duration : 1h 45mn
Bit rate mode : Constant
Bit rate : 384 Kbps
Channel(s) : 6 channels
Channel positions : Front: L C R, Side: L R, LFE
Sampling rate : 48.0 KHz
Bit depth : 16 bits
Compression mode : Lossy
Stream size : 290 MiB (3%)
Title : Дубляж
Language : Russian

Audio #2
ID : 4
Format : DTS
Format/Info : Digital Theater Systems
Codec ID : A_DTS
Duration : 1h 45mn
Bit rate mode : Constant
Bit rate : 1 510 Kbps
Channel(s) : 6 channels
Channel positions : Front: L C R, Side: L R, LFE
Sampling rate : 48.0 KHz
Bit depth : 24 bits
Compression mode : Lossy
Stream size : 1.11 GiB (12%)
Title : Люб. одноголосый, А. Киреев
Language : Russian

Audio #3
ID : 5
Format : DTS
Format/Info : Digital Theater Systems
Codec ID : A_DTS
Duration : 1h 45mn
Bit rate mode : Constant
Bit rate : 1 510 Kbps
Channel(s) : 6 channels
Channel positions : Front: L C R, Side: L R, LFE
Sampling rate : 48.0 KHz
Bit depth : 24 bits
Compression mode : Lossy
Delay relative to video : 11ms
Stream size : 1.11 GiB (12%)
Title : ENG DTS 1509kbps
Language : English

Text #1
ID : 2
Format : VobSub
Muxing mode : zlib
Codec ID : S_VOBSUB
Codec ID/Info : The same subtitle format used on DVDs
Language : English

Text #2
ID : 6
Format : UTF-8
Codec ID : S_TEXT/UTF8
Codec ID/Info : UTF-8 Plain Text
Title : На места без перевода
Language : Russian

Свернуть
_________________
Изображение


Последний раз редактировалось Артурыч 2011-10-25 10:41, всего редактировалось 1 раз.
Не в сети
Профиль  
 Добавлено: 2011-10-23 18:56 (спустя 1 день 3 часа)
Кинокомментатор
Аватара пользователя
Стаж: 9 лет 1 месяц
Сообщений: 1332
Лайков: 54
классное кино!) очень понравилось) то что было надо)) пошло! смешно!) и Энистон теперь мне будет сниться!) полюбому!)
фильм на 8 :) мне понравилось:) лёгкий простой интересный!)
_________________
Я ВКонтакте
Не в сети
Профиль  
 Добавлено: 2011-10-24 19:05 (спустя 1 день)
Top-seeder
Стаж: 9 лет 1 месяц
Сообщений: 748
Спасибок: 636
Лайков: 3
Джени многим снится )))
Буду ждать дубляжа.
Не в сети
Профиль  
 Добавлено: 2011-10-24 19:16 (спустя 11 минут)
Top-releaser
Аватара пользователя
Стаж: 8 лет 7 месяцев
Сообщений: 1286
Спасибок: 3420
Лайков: 7

mk4:

Джени многим снится )))
Буду ждать дубляжа.
А это что?
Не в сети
Профиль  
 Добавлено: 2011-10-25 05:07 (спустя 9 часов)
Top-seeder
Стаж: 9 лет 1 месяц
Сообщений: 748
Спасибок: 636
Лайков: 3
Чет я не пойму - в описании "Любительский одноголосый"
Не в сети
Профиль  
 Добавлено: 2011-10-25 05:47 (спустя 40 минут)
Top-releaser
Аватара пользователя
Стаж: 8 лет 7 месяцев
Сообщений: 1286
Спасибок: 3420
Лайков: 7

mk4:

Чет я не пойму - в описании "Любительский одноголосый"
Аудио: AC3, 384 kb/s, 6 ch, 48 КГц, 16 бит [Дубляж]
Аудио #2: DTS, 1536 kb/s, 6 ch, 48 КГц, 24 бит [Любительский одноголосый, А. Киреев по переводу Гоблина]
Не в сети
Профиль  
 Добавлено: 2011-10-25 17:08 (спустя 11 часов)
Top-seeder
Стаж: 9 лет 1 месяц
Сообщений: 748
Спасибок: 636
Лайков: 3
Ок, значит качаем...
Не в сети
Профиль  
 Добавлено: 2011-10-30 15:31 (спустя 4 дня)
Аватара пользователя
Стаж: 8 лет 10 месяцев
Возраст: 27
Сообщений: 721
Спасибок: 5528
Лайков: 1
отличный фильм, мне понравился :)
_________________
Изображение
Не в сети
Профиль  
 Добавлено: 2011-11-01 01:43 (спустя 1 день 10 часов)
Console V.I.P.
Аватара пользователя
Стаж: 9 лет
Сообщений: 1453
Спасибок: 690
Лайков: 12
Фильм :co_ol: :co_ol: :co_ol:
Не в сети
Профиль  
 Добавлено: 2011-12-19 18:02 (спустя 1 месяц 18 дней)
Аватара пользователя
Стаж: 7 лет 11 месяцев
Сообщений: 786
Спасибок: 25
Лайков: 9
:ya_hoo_oo: Отличная Комедия , Просто Супер Стар :co_ol:
Не в сети
Профиль  
 Добавлено: 2014-10-17 11:25 (спустя 2 года 9 месяцев)
Аватара пользователя
Стаж: 7 лет 11 месяцев
Возраст: 30
Сообщений: 31
Спасибок: 43
что есть наподобие или просто такое же смешное, кроме "РЭД", "Миллион способов умереть на диком западе" или же в духе "Проект Х" и т.д.? )
Не в сети
Профиль  
Начать новую темуОтветить на тему  [ Сообщений: 11 ] 
Вы не можете начинать темы
Вы не можете отвечать на сообщения
Вы не можете редактировать свои сообщения
Вы не можете удалять свои сообщения