Правила форума

  • В этом разделе создание новых тем Запрещено.
  • Для создания новых тем пользуйтесь Корневым разделом DVD и HD фильмы.
Начать новую темуОтветить на тему  [ Сообщений: 7 ] 
Торрент файл
Размер: 5.28 GB • Зарегистрирован: 2 года 10 месяцев • Статус: T Временный релиз
Скачан: 278 раз • Желающих скачать: 0 • Поблагодарили: 77 раз
 Раздают: 0  |  0 KB/s  ]   Качают: 0  |  0 KB/s  ] 
 Полного источника не было 1 час 34 минуты 
Сообщения
 Добавлено: 2014-01-26 17:59
Аватара пользователя
Стаж: 4 года 1 месяц
Сообщений: 12
Спасибок: 268
Лайков: 2
Несносный дед / Jackass Presents: Bad Grandpa

Изображение


Год выпуска: 2013
Страна: США
Слоган: -
Жанр: Комедия
Продолжительность: 01:42:13
Версия фильма: Extended cut / Расширенная версия
Перевод: Профессиональный (многоголосый закадровый)
Субтитры: Английские

Режиссёр: Джефф Треймейн
Сценарист: Джонни Ноксвил, Спайк Джонс, Джефф Треймейн
Продюсер: Дерек Фреда, Спайк Джонс, Джонни Ноксвил
Оператор: Лэнс Бэнгс, Дмитрий Еляшкевич
В ролях: Джонни Ноксвил, Джексон Николл, Грег Харрис, Джорджина Кэйтс, Камбер Хейлик, Джилл Килл, Мэдисон Дэвис, Джордж Фонан, Грэси Мерседес, Мэрилинн Эллейн
Описание: 86-летний старикан по имени Ирвинг Зисман путешествует по Америке с необычным компаньоном — восьмилетним «внуком» Билли.

По дороге заводной дедушка знакомит впечатлительного Билли с людьми, местами и ситуациями, которые вряд ли укладываются в рамки привычных представлений о воспитании. Парочка столкнется со стриптизерами, разъяренными участниками помпезного детского конкурса красоты и их не менее злыми мамашами, скорбящими посетителями панихиды, завсегдатаями бара для байкеров и другими ничего не подозревающими гражданами США.
Рейтинг MPAA: Рейтинг R (Подростки до 17 лет допускаются на фильм только в сопровождении одного из родителей)
Мировая премьера: 23 октября 2013
Премьера в России: 23 января 2014
Бюджет: $15 000 000
Кассовые сборы: $146 103 019
Изображение 6.627 (6721)
Изображение 6.80 (33 878)

Качество: BDRip 720p
Формат: MKV
Видео кодек: H264 (AVC)
Аудио кодек: AC3 (Dolby Digital)
Видео: 1280x720 (16:9), 23.976 fps, 7 000 Kbps (0.317 bit/pixel)
Аудио #1: AC-3, 48.0 KHz, 6 ch, 384 Kbps, CBR [Профессиональный (многоголосый закадровый)]
Субтитры: Английские
Скриншоты
Изображение
Изображение
Изображение
Свернуть

Знаете ли Вы, что...
Хотя сцены со Спайком Джонсом и не вошли в финальную версию фильма, его имя указано в финальных титрах, а удаленные сцены с его участием можно увидеть на DVD/Blu-Ray.

Первый фильм «Чудаков», в написании сценария которого участвовали люди не из команды «Чудаков». Сценаристы Факс Бар и Адам Смолл ранее писали сценарий пародии на «Чудаков» для своего шоу «MADtv».

Несмотря на юный возраст, Джексон Николл на протяжении всех съемок практически всегда оставался в образе.

Джонни Ноксвил заявил, что его персонаж, Ирвинг Зисман, представляет собой сочетание его собственного отца и более извращенной версии самого Джонни.
Свернуть

MediaInfo
Общее

Формат : MKV
Версия формата : Version 4 / Version 2
Размер файла : 5,28 Гбайт
Продолжительность : 1 ч. 42 м.
Общий поток : 7402 Кбит/сек
Дата кодирования : UTC 2014-01-23 22:41:15


Видео
Идентификатор : 1
Формат : AVC
Формат/Информация : Advanced Video Codec
Профиль формата : High@L4.1
Параметр CABAC формата : Да
Параметр ReFrames формата : 9 кадров
Идентификатор кодека : V_MPEG4/ISO/AVC
Продолжительность : 1 ч. 42 м.
Битрейт : 7000 Кбит/сек
Ширина : 1280 пикселей
Высота : 720 пикселей
Соотношение сторон : 16:9
Режим частоты кадров : Постоянный
Частота кадров : 23,976 кадра/сек
Цветовое пространство : YUV
Субдискретизация насыщенности : 4:2:0
Битовая глубина : 8 бит
Тип развёртки : Прогрессивная
Бит/(Пиксели*Кадры) : 0.317
Размер потока : 4,91 Гбайт (93%)
Библиотека кодирования : x264 core 140 r2377+40 929f149 tMod [8-bit@4:2:0 X86_64]
Настройки программы : cabac=1 / ref=9 / deblock=1:-3:-3 / analyse=0x3:0x113 / me=umh / subme=10 / psy=1 / fade_compensate=0.00 / psy_rd=1.10:0.00 / mixed_ref=1 / me_range=32 / chroma_me=1 / trellis=2 / 8x8dct=1 / cqm=0 / deadzone=21,11 / fast_pskip=0 / chroma_qp_offset=-2 / threads=18 / lookahead_threads=3 / sliced_threads=0 / nr=0 / decimate=0 / interlaced=0 / bluray_compat=0 / constrained_intra=0 / fgo=0 / bframes=8 / b_pyramid=2 / b_adapt=2 / b_bias=0 / direct=3 / weightb=1 / open_gop=0 / weightp=2 / keyint=240 / keyint_min=24 / scenecut=40 / intra_refresh=0 / rc_lookahead=240 / rc=2pass / mbtree=1 / bitrate=7000 / ratetol=1.0 / qcomp=0.70 / qpmin=0:0:0 / qpmax=69:69:69 / qpstep=4 / cplxblur=20.0 / qblur=0.5 / ip_ratio=1.20 / aq=4:0.75 / aq-sensitivity=10.00 / aq-factor=1.00:1.00:1.00 / aq2=0 / aq3=0
Default : Да
Forced : Нет

Аудио
Идентификатор : 2
Формат : AC-3
Формат/Информация : Audio Coding 3
Расширение режима : CM (complete main)
Параметр Endianness формата : Big
Идентификатор кодека : A_AC3
Продолжительность : 1 ч. 42 м.
Вид битрейта : Постоянный
Битрейт : 384 Кбит/сек
Каналы : 6 каналов
Расположение каналов : Front: L C R, Side: L R, LFE
Частота : 48,0 КГц
Битовая глубина : 16 бит
Метод сжатия : С потерями
Размер потока : 281 Мбайт (5%)
Default : Да
Forced : Нет

Текст
Идентификатор : 3
Формат : PGS
Режим смешивания : zlib
Идентификатор кодека : S_HDMV/PGS
Идентификатор кодека/Информация : The same subtitle format used on BDs/HD-DVDs
Язык : English
Default : Да
Forced : Нет

Свернуть

Изображение
_________________
Изображение
Не в сети
Профиль  
 Добавлено: 2014-01-28 16:58 (спустя 1 день 22 часа)
Стаж: 8 лет 1 месяц
Сообщений: 22
Спасибок: 35
Изображение
Не в сети
Профиль  
 Добавлено: 2014-01-28 18:06 (спустя 1 час 7 минут)
Модератор
Аватара пользователя
Стаж: 7 лет 11 месяцев
Возраст: 27
Сообщений: 1869
Спасибок: 3375
Лайков: 137
смотрел в кино,ништяк фильмец)
_________________
Изображение


Изображение
Не в сети
Профиль  
 Добавлено: 2014-02-01 20:39 (спустя 4 дня)
Стаж: 9 лет 1 месяц
Возраст: 34
Сообщений: 64
Спасибок: 148
Лайков: 1
Это угрюмое говно под названием "Несносный дед" я смог осилить до примерки им костюма. Гадость ужасная!
Не в сети
Профиль  
 Добавлено: 2014-02-02 14:05 (спустя 17 часов)
Кинокомментатор
Аватара пользователя
Стаж: 9 лет 1 месяц
Сообщений: 1332
Лайков: 54
классное кино) низкосортный юмор) пошлости) глупости) всё как мы любим! даааа) 8/10... в коллекцию к Борату, Чудакам и Али Джи)))
_________________
Я ВКонтакте
Не в сети
Профиль  
 Добавлено: 2014-03-17 17:18 (спустя 1 месяц 15 дней)
Аватара пользователя
Стаж: 8 лет 1 месяц
Возраст: 31
Сообщений: 46
Спасибок: 1
а перевод гоблина что ли? сплошной мат. не могли же так в кинотеатре показывать
Не в сети
Профиль  
 Добавлено: 2014-03-19 09:07 (спустя 1 день 15 часов)
Аватара пользователя
Стаж: 4 года 10 месяцев
Возраст: 29
Сообщений: 86
Лайков: 1
м да филь полное Г.для дебиловDDDD
Не в сети
Профиль  
Начать новую темуОтветить на тему  [ Сообщений: 7 ] 
Вы не можете начинать темы
Вы не можете отвечать на сообщения
Вы не можете редактировать свои сообщения
Вы не можете удалять свои сообщения