Правила форума

  • В этом разделе создание новых тем Запрещено.
  • Для создания новых тем пользуйтесь Корневым разделом DVD и HD фильмы.
Начать новую темуОтветить на тему  [ Сообщений: 3 ] 
Торрент файл
Размер: 14.51 GB • Зарегистрирован: 2 года • Статус: Проверено
Скачан: 68 раз • Желающих скачать: 0 • Поблагодарили: 13 раз
 Раздают: 0  |  0 KB/s  ]   Качают: 0  |  0 KB/s  ] 
 Полного источника не было 15 дней 
Сообщения
 Добавлено: 2014-11-23 00:18
Аватара пользователя
Стаж: 9 лет 1 месяц
Сообщений: 8047
Спасибок: 122285
Лайков: 1194
Неудержимые 3 (Расширенная версия) / The Expendables 3 (Unrated)

«Сборная Голливуда снова в игре»

Изображение


Год выпуска: 2014
Страна: Изображение США Изображение Франция
Жанр: боевик, триллер, приключения
Продолжительность: 02:11:31
Субтитры: Английские
Перевод: Профессиональный (полное дублирование) [Лицензия] + Авторский (одноголосый, закадровый) [Д. Есарев]

Примечание: Расширенная версия длиннее театральной примерно на 5 минут. В непереведенных эпизодах вставлена озвучка Д.Есарева.


Режиссер: Патрик Хьюз
Сценарий: Сильвестр Сталлоне, Крейтон Ротенбергер, Кэтрин Бенедикт
Продюсер: Ави Лернер, Дэнни Лернер, Джон Томпсон
Оператор: Питер Мензиес мл.
Композитор: Брайан Тайлер

В ролях: Сильвестр Сталлоне, Джейсон Стэйтем, Джет Ли, Антонио Бандерас, Уэсли Снайпс, Дольф Лундгрен, Мэл Гибсон, Харрисон Форд, Арнольд Шварценеггер, Келлан Латс, Терри Крюс, Сарай Гивати, Рэнди Кутюр, Ронда Раузи, Роберт Дави, Наталия Гуслистая, Виктор Ортис, Глен Пауэлл

Описание: Барни, Кристмас и остальные члены команды сходятся лицом к лицу с Конрадом Стоунбэнксом, многие годы назад основавшем вместе с Барни команду «Неудержимых». Впоследствии Стоунбэнкс становится безжалостным торговцем оружием и тем самым превращается в человека, которого Барни было поручено убить. Или по крайней мере он сам так считал. Теперь Стоунбэнкс, один раз уже сумевший обмануть смерть, поставил себе цель покончить с «Неудержимыми» — но у Барни на этот счет свои планы. Барни решает, что в его борьбе «свежий» подход можно противопоставить старым методам, и пополняет ряды людьми, которые моложе, быстрее и технически более подкованные. Так у членов команды «Неудержимых» начинается новая эра. Последняя миссия превращается в столкновение между представителями классической старой школы и экспертами в высоких технологиях.

Изображение Изображение

Раздача группы: Изображение

Качество: BDRip (1080p)
Формат: Matroska
Видео: MPEG-4 AVC, 9453 Кбит/с, 1920x800
Аудио №1: Русский (DTS, 48,0 КГц, 6 ch, 1510 Кбит/c) Дубляж
Аудио №2: Русский (AC3, 48,0 КГц, 6 ch, 640 Кбит/c) Дубляж
Аудио №3: Русский (DTS, 48,0 КГц, 6 ch, 1510 Кбит/c) Д. Есарев
Аудио №4: Русский (AC3, 48,0 КГц, 6 ch, 384 Кбит/c) Д. Есарев
Аудио №5: Английский (DTS, 48,0 КГц, 6 ch, 1510 Кбит/c)
Аудио №6: Английский (DTS, 48,0 КГц, 6 ch, 1510 Кбит/c) Descriptive

MediaInfo
Формат : Matroska
Версия формата : Version 4 / Version 2
Размер файла : 14,5 Гбайт
Продолжительность : 2 ч. 11 м.
Общий поток : 15,8 Мбит/сек
Дата кодирования : UTC 2014-11-22 22:42:00
Программа кодирования : mkvmerge v7.3.0 ('Nouages') 32bit built on Oct 22 2014 18:44:01
Библиотека кодирования : libebml v1.3.0 + libmatroska v1.4.1
_STATISTICS_WRITING_APP : mkvmerge v7.3.0 ('Nouages') 32bit built on Oct 22 2014 18:44:01
_STATISTICS_WRITING_DATE_UTC : 2014-11-22 22:42:00
_STATISTICS_TAGS : BPS DURATION NUMBER_OF_FRAMES NUMBER_OF_BYTES
DURATION : 02:04:16.576000000
NUMBER_OF_FRAMES : 699054
NUMBER_OF_BYTES : 1406496648

Видео
Идентификатор : 1
Формат : AVC
Формат/Информация : Advanced Video Codec
Профиль формата : High@L4.1
Параметр CABAC формата : Да
Параметр ReFrames формата : 5 кадров
Идентификатор кодека : V_MPEG4/ISO/AVC
Продолжительность : 2 ч. 11 м.
Битрейт : 9453 Кбит/сек
Ширина : 1920 пикселей
Высота : 800 пикселей
Соотношение сторон : 2,40:1
Режим частоты кадров : Постоянный
Частота кадров : 23,976 кадра/сек
Цветовое пространство : YUV
Субдискретизация насыщенности : 4:2:0
Битовая глубина : 8 бит
Тип развёртки : Прогрессивная
Бит/(Пиксели*Кадры) : 0.257
Размер потока : 8,68 Гбайт (60%)
Заголовок : Expendables.3.2014.EXTENDED.1080p.BluRay.DTS.x264-HDAccess
Библиотека кодирования : x264 core 142 r2479kMod dd79a61
Настройки программы : cabac=1 / ref=5 / deblock=1:-3:-3 / analyse=0x3:0x133 / me=umh / subme=11 / psy=1 / fade_compensate=0.00 / psy_rd=1.05:0.00 / mixed_ref=1 / me_range=32 / chroma_me=1 / trellis=2 / 8x8dct=1 / cqm=0 / deadzone=21,11 / fast_pskip=0 / chroma_qp_offset=-2 / threads=18 / lookahead_threads=3 / sliced_threads=0 / nr=0 / decimate=1 / interlaced=0 / bluray_compat=0 / constrained_intra=0 / fgo=0 / bframes=9 / b_pyramid=2 / b_adapt=2 / b_bias=0 / direct=3 / weightb=1 / open_gop=0 / weightp=2 / keyint=230 / keyint_min=23 / scenecut=40 / intra_refresh=0 / rc_lookahead=40 / rc=crf / mbtree=0 / crf=17.8000 / qcomp=0.70 / qpmin=0 / qpmax=69 / qpstep=4 / vbv_maxrate=50000 / vbv_bufsize=62500 / crf_max=0.0 / nal_hrd=none / filler=0 / ip_ratio=1.20 / pb_ratio=1.10 / aq=1:0.85
Язык : English
Default : Да
Forced : Нет
Коэффициенты матрицы : BT.709
_STATISTICS_WRITING_APP : mkvmerge v7.3.0 ('Nouages') 32bit built on Oct 22 2014 18:44:01
_STATISTICS_WRITING_DATE_UTC : 2014-11-22 22:42:00
_STATISTICS_TAGS : BPS DURATION NUMBER_OF_FRAMES NUMBER_OF_BYTES
DURATION : 02:11:31.467000000
NUMBER_OF_FRAMES : 189206
NUMBER_OF_BYTES : 9846128055

Аудио #1
Идентификатор : 2
Формат : AC-3
Формат/Информация : Audio Coding 3
Расширение режима : CM (complete main)
Параметр Endianness формата : Big
Идентификатор кодека : A_AC3
Продолжительность : 2 ч. 11 м.
Вид битрейта : Постоянный
Битрейт : 640 Кбит/сек
Каналы : 6 каналов
Расположение каналов : Front: L C R, Side: L R, LFE
Частота : 48,0 КГц
Битовая глубина : 16 бит
Метод сжатия : С потерями
Размер потока : 602 Мбайт (4%)
Заголовок : Дубляж Blu-ray RUS
Язык : Russian
Default : Да
Forced : Нет

Аудио #2
Идентификатор : 3
Формат : DTS
Формат/Информация : Digital Theater Systems
Режим : 16
Параметр Endianness формата : Big
Идентификатор кодека : A_DTS
Продолжительность : 2 ч. 11 м.
Вид битрейта : Постоянный
Битрейт : 1509 Кбит/сек
Каналы : 6 каналов
Расположение каналов : Front: L C R, Side: L R, LFE
Частота : 48,0 КГц
Битовая глубина : 16 бит
Метод сжатия : С потерями
Размер потока : 1,39 Гбайт (10%)
Заголовок : Дубляж Blu-ray RUS
Язык : Russian
Default : Нет
Forced : Нет

Аудио #3
Идентификатор : 4
Формат : AC-3
Формат/Информация : Audio Coding 3
Расширение режима : CM (complete main)
Параметр Endianness формата : Big
Идентификатор кодека : A_AC3
Продолжительность : 2 ч. 11 м.
Вид битрейта : Постоянный
Битрейт : 640 Кбит/сек
Каналы : 6 каналов
Расположение каналов : Front: L C R, Side: L R, LFE
Частота : 48,0 КГц
Битовая глубина : 16 бит
Метод сжатия : С потерями
Размер потока : 602 Мбайт (4%)
Заголовок : Одноголосый закадровый, Д.Есарев
Язык : Russian
Default : Нет
Forced : Нет

Аудио #4
Идентификатор : 5
Формат : DTS
Формат/Информация : Digital Theater Systems
Режим : 16
Параметр Endianness формата : Big
Идентификатор кодека : A_DTS
Продолжительность : 2 ч. 11 м.
Вид битрейта : Постоянный
Битрейт : 1509 Кбит/сек
Каналы : 6 каналов
Расположение каналов : Front: L C R, Side: L R, LFE
Частота : 48,0 КГц
Битовая глубина : 16 бит
Метод сжатия : С потерями
Размер потока : 1,39 Гбайт (10%)
Заголовок : Одноголосый закадровый, Д.Есарев
Язык : Russian
Default : Нет
Forced : Нет

Аудио #5
Идентификатор : 6
Формат : DTS
Формат/Информация : Digital Theater Systems
Режим : 16
Параметр Endianness формата : Big
Идентификатор кодека : A_DTS
Продолжительность : 2 ч. 11 м.
Вид битрейта : Постоянный
Битрейт : 1510 Кбит/сек
Каналы : 6 каналов
Расположение каналов : Front: L C R, Side: L R, LFE
Частота : 48,0 КГц
Битовая глубина : 24 бит
Метод сжатия : С потерями
Размер потока : 1,39 Гбайт (10%)
Заголовок : English DTS 5.1 @ 1509 kbps
Язык : English
Default : Нет
Forced : Нет

Аудио #6
Идентификатор : 7
Формат : AC-3
Формат/Информация : Audio Coding 3
Профиль формата : Dolby Digital
Расширение режима : CM (complete main)
Параметр Endianness формата : Big
Идентификатор кодека : A_AC3
Продолжительность : 2 ч. 11 м.
Вид битрейта : Постоянный
Битрейт : 224 Кбит/сек
Каналы : 2 канала
Расположение каналов : Front: L R
Частота : 48,0 КГц
Битовая глубина : 16 бит
Метод сжатия : С потерями
Размер потока : 211 Мбайт (1%)
Заголовок : Commentary English DD 2.0 @ 224 kbps
Язык : English
Default : Нет
Forced : Нет

Текст #1
Идентификатор : 8
Формат : PGS
Режим смешивания : zlib
Идентификатор кодека : S_HDMV/PGS
Идентификатор кодека/Информация : The same subtitle format used on BDs/HD-DVDs
Заголовок : SDH
Язык : English
Default : Нет
Forced : Нет

Текст #2
Идентификатор : 9
Формат : PGS
Режим смешивания : zlib
Идентификатор кодека : S_HDMV/PGS
Идентификатор кодека/Информация : The same subtitle format used on BDs/HD-DVDs
Язык : English
Default : Нет
Forced : Нет

Меню
00:00:00.000 : en:00:00:00.000
00:07:25.528 : en:00:07:25.528
00:13:00.029 : en:00:13:00.029
00:22:24.760 : en:00:22:24.760
00:30:12.102 : en:00:30:12.102
00:36:20.303 : en:00:36:20.303
00:42:31.424 : en:00:42:31.424
00:48:45.548 : en:00:48:45.548
00:55:37.709 : en:00:55:37.709
01:01:30.270 : en:01:01:30.270
01:12:07.573 : en:01:12:07.573
01:21:14.786 : en:01:21:14.786
01:30:10.655 : en:01:30:10.655
01:36:43.339 : en:01:36:43.339
01:47:47.628 : en:01:47:47.628
01:56:15.760 : en:01:56:15.760
Свернуть
Знаете ли вы, что...
На роль Камиллы рассматривалась Милла Йовович, но в итоге она покинула проект.

В фильме мог сыграть Стивен Сигал.

Дуэйн Джонсон и Халк Хоган были согласны играть, но им отказали.

Планировалось участие Жан-Клода Ван Дамма в роли брата-близнеца Жана Вилена — Клода Вилена.

Клинту Иствуду предлагали одну из ролей, но он отказался.

Брюс Уиллис должен был сыграть роль Чёрча за гонорар в $ 3 миллиона (по $ 750,000 за каждый из четырех съемочных дней). Когда он потребовал $ 1 миллион в день, Сильвестр Сталлоне и продюсеры фильма отказали ему, после чего он покинул проект. Буквально через 3 дня Сталлоне заполучил на эту роль Харрисона Форда.

Сильвестр Сталлоне предлагал роль второго плана Джеки Чану, но тот отказался, потому что хотел сыграть одну из главных ролей.

Во время съемок сцены в грузовике с Джейсоном Стэйтемом произошла авария — из-за того, что отказали тормоза, грузовик упал в море. Актер не пострадал.

Николас Кейдж рассматривался на роль Бонапарта, прежде чем эту роль получил Келси Грэммер.

Микки Рурку предлагали сыграть роль Тула.

Съёмочный период Арнольда Шварценеггера составил чуть больше недели.

Лукас Тилл пробовался на роль Смайли, которую позже получил Келлан Латс.

Когда у Дока спрашивают, за что он попал в тюрьму, тот отвечает за неуплату налогов. Это прямая отсылка к актеру, сыгравшему роль Дока — Уэсли Снайпсу. Он действительно был осужден на три года и отсидел в тюрьме за неуплату налогов.

Когда Барни Росс допрашивал Конрада Стоунбэнкса в фургоне, на заднем плане висит костюм N7 (фото), который принадлежит капитану Шепарду, главному герою компьютерной игры Mass Effect.

Мэлу Гибсону предлагали не только роль главного злодея, но еще и место режиссера проекта, но от последней должности он все же отказался.

Когда самолёт Барни и новой команды выходит на взлётную полосу, двигатели включены, но когда появляется старая команда, лопасть двигателя неподвижна.

Свернуть
Скриншоты
Изображение
Изображение
Изображение
Изображение
Свернуть
Не в сети
Профиль  
 Добавлено: 2014-11-23 21:37 (спустя 21 час)
Аватара пользователя
Стаж: 9 лет 1 месяц
Сообщений: 2393
Спасибок: 434
Лайков: 1
Приятно, что летают они все таки на нашем АН-26!!
Не в сети
Профиль  
 Добавлено: 2014-11-24 21:32 (спустя 23 часа)
Аватара пользователя
Стаж: 8 лет 10 месяцев
Возраст: 27
Сообщений: 98
Лайков: 1
рассинхрона нету???
Не в сети
Профиль  
Начать новую темуОтветить на тему  [ Сообщений: 3 ] 
Вы не можете начинать темы
Вы не можете отвечать на сообщения
Вы не можете редактировать свои сообщения
Вы не можете удалять свои сообщения