Правила форума

  • В этом разделе создание новых тем Запрещено.
  • Для создания новых тем пользуйтесь Корневым разделом DVD и HD фильмы.
Начать новую темуОтветить на тему  [ Сообщений: 3 ] 
Торрент файл
Размер: 13.91 GB • Зарегистрирован: 3 года 5 месяцев • Статус: Проверено
Скачан: 80 раз • Желающих скачать: 0 • Поблагодарили: 21 раз
 Раздают: 0  |  0 KB/s  ]   Качают: 0  |  0 KB/s  ] 
 Полного источника не было 2 месяца 5 дней 
Сообщения
 Добавлено: 2013-06-26 15:51
Аватара пользователя
Стаж: 9 лет 1 месяц
Сообщений: 7932
Спасибок: 122150
Лайков: 1191
Неудержимый / Bullet to the Head

Изображение


Год выпуска: 2012
Страна: Изображение США
Жанр: боевик, триллер, криминал
Продолжительность: 01:31:33
Субтитры: Английские
Перевод: Профессиональный (полное дублирование) [Лицензия] + Авторский (одноголосый, закадровый) [Ю. Сербин]


Режиссер: Уолтер Хилл
Сценарий: Алессандро Камон, Алексис Ноулент, Колин Уилсон
Продюсер: Альфред Гоф, Александра Милчэн, Майлз Миллар
Оператор: Ллойд Ахерн II
Композитор: Стив Маццаро

В ролях: Сильвестр Сталлоне, Санг Кенг, Сара Шахи, Адевале Акинойе-Агбаже, Джейсон Момоа, Кристиан Слэйтер, Джон Седа, Холт МакКэллани, Брайан Ван Холт, Вероника Розати

Описание: Киллер из Нового Орлеана объединяется с молодым полицейским из Нью-Йорка, расследуя дело, которое выводит их с мрачных задворок Нового Орлеана в светлые коридоры правительственных зданий в Вашингтоне. Необычный дуэт формируется в результате двух жестоких убийств. Герои убирают всех, кто стоит у них на пути, и готовы пожертвовать всем, чтобы отомстить.

Изображение Изображение

Релиз группы: Изображение Раздача группы: Изображение

Качество: BDRip (1080p)
Формат: Matroska
Видео: MPEG-4 AVC, 16.8 Мбит/с, 1920x1036
Аудио №1: Русский (DTS, 48,0 КГц, 6 ch, 1510 Кбит/c) Дубляж
Аудио №2: Русский (DTS, 48,0 КГц, 6 ch, 1510 Кбит/c) Ю. Сербин
Аудио №3: Английский (DTS, 48,0 КГц, 6 ch, 1510 Кбит/c)

MediaInfo
Общее
Уникальный идентификатор : 209488240775337341015167672828596288192 (0x9D99F7B404DFB0E282844E943DF37AC0)
Полное имя : C:\Фильмы\Bullet.to.the.Head.2012.1080p.BluRay.DTS.2xRus.Eng.R.G.Daredevil.mkv
Формат : Matroska
Версия формата : Version 2
Размер файла : 13,9 Гбайт
Продолжительность : 1 ч. 31 м.
Общий поток : 21,8 Мбит/сек
Название фильма : IRONCLUB
Дата кодирования : UTC 2013-06-26 05:00:44
Программа кодирования : mkvmerge v5.2.0 ('I can't explain') built on Dec 18 2011 18:12:03
Библиотека кодирования : libebml v1.2.3 + libmatroska v1.3.0

Видео
Идентификатор : 1
Формат : AVC
Формат/Информация : Advanced Video Codec
Профиль формата : High@L4.1
Параметр CABAC формата : Да
Параметр ReFrames формата : 4 кадра
Идентификатор кодека : V_MPEG4/ISO/AVC
Продолжительность : 1 ч. 31 м.
Битрейт : 16,8 Мбит/сек
Ширина : 1920 пикселей
Высота : 1036 пикселей
Соотношение сторон : 1,85:1
Режим частоты кадров : Постоянный
Частота кадров : 23,976 кадра/сек
Цветовое пространство : YUV
Субдискретизация насыщенности : 4:2:0
Битовая глубина : 8 бит
Тип развёртки : Прогрессивная
Бит/(Пиксели*Кадры) : 0.352
Размер потока : 10,7 Гбайт (77%)
Заголовок : Bullet.to.the.Head.2012.1080p.BluRay.DTS.x264-FANDANGO
Библиотека кодирования : x264 core 132 r2309kMod 3b1f1f7
Настройки программы : opencl=1 / cabac=1 / ref=4 / deblock=1:-3:-3 / analyse=0x3:0x113 / me=umh / subme=10 / psy=1 / fade_compensate=0.00 / psy_rd=1.05:0.00 / mixed_ref=1 / me_range=16 / chroma_me=1 / trellis=2 / 8x8dct=1 / cqm=0 / deadzone=21,11 / fast_pskip=0 / chroma_qp_offset=-2 / threads=6 / lookahead_threads=1 / sliced_threads=0 / nr=0 / decimate=0 / interlaced=0 / bluray_compat=0 / constrained_intra=0 / bframes=8 / b_pyramid=2 / b_adapt=2 / b_bias=0 / direct=3 / weightb=1 / open_gop=0 / weightp=2 / keyint=250 / keyint_min=23 / scenecut=40 / intra_refresh=0 / rc_lookahead=40 / rc=crf / mbtree=1 / crf=18.0000 / qcomp=0.75 / qpmin=0 / qpmax=69 / qpstep=4 / ip_ratio=1.30 / aq=1:0.75
Язык : English
Default : Да
Forced : Да

Аудио #1
Идентификатор : 2
Формат : DTS
Формат/Информация : Digital Theater Systems
Режим : 16
Параметр Endianness формата : Big
Идентификатор кодека : A_DTS
Продолжительность : 1 ч. 31 м.
Вид битрейта : Постоянный
Битрейт : 1509 Кбит/сек
Каналы : 6 каналов
Расположение каналов : Front: L C R, Side: L R, LFE
Частота : 48,0 КГц
Битовая глубина : 16 бит
Метод сжатия : С потерями
Размер потока : 988 Мбайт (7%)
Заголовок : DTS 5.1 @ 1536 kbps - Dub, BD RUS
Язык : Russian
Default : Да
Forced : Да

Аудио #2
Идентификатор : 3
Формат : DTS
Формат/Информация : Digital Theater Systems
Режим : 16
Параметр Endianness формата : Big
Идентификатор кодека : A_DTS
Продолжительность : 1 ч. 31 м.
Вид битрейта : Постоянный
Битрейт : 1509 Кбит/сек
Каналы : 6 каналов
Расположение каналов : Front: L C R, Side: L R, LFE
Частота : 48,0 КГц
Битовая глубина : 24 бит
Метод сжатия : С потерями
Размер потока : 988 Мбайт (7%)
Заголовок : DTS 5.1 @ 1536 kbps - Одноголосый закадровый, Ю.Сербин
Язык : Russian
Default : Нет
Forced : Нет

Аудио #3
Идентификатор : 4
Формат : DTS
Формат/Информация : Digital Theater Systems
Режим : 16
Параметр Endianness формата : Big
Идентификатор кодека : A_DTS
Продолжительность : 1 ч. 31 м.
Вид битрейта : Постоянный
Битрейт : 1509 Кбит/сек
Каналы : 6 каналов
Расположение каналов : Front: L C R, Side: L R, LFE
Частота : 48,0 КГц
Битовая глубина : 24 бит
Метод сжатия : С потерями
Размер потока : 988 Мбайт (7%)
Заголовок : DTS 5.1 @ 1536 kbps
Язык : English
Default : Нет
Forced : Нет

Текст #1
Идентификатор : 5
Формат : UTF-8
Идентификатор кодека : S_TEXT/UTF8
Идентификатор кодека/Информация : UTF-8 Plain Text
Язык : English
Default : Нет
Forced : Нет

Текст #2
Идентификатор : 6
Формат : UTF-8
Идентификатор кодека : S_TEXT/UTF8
Идентификатор кодека/Информация : UTF-8 Plain Text
Заголовок : SDH
Язык : English
Default : Нет
Forced : Нет

Меню
00:00:00.000 : en:00:00:00.000
00:06:32.434 : en:00:06:32.434
00:07:43.380 : en:00:07:43.380
00:11:30.440 : en:00:11:30.440
00:16:25.109 : en:00:16:25.109
00:21:54.355 : en:00:21:54.355
00:27:53.547 : en:00:27:53.547
00:30:30.078 : en:00:30:30.078
00:34:59.931 : en:00:34:59.931
00:40:39.312 : en:00:40:39.312
00:47:19.295 : en:00:47:19.295
00:56:18.375 : en:00:56:18.375
01:00:55.110 : en:01:00:55.110
01:03:45.447 : en:01:03:45.447
01:07:01.184 : en:01:07:01.184
01:09:18.571 : en:01:09:18.571
01:13:50.968 : en:01:13:50.968
01:17:32.356 : en:01:17:32.356
01:23:24.333 : en:01:23:24.333
01:26:23.011 : en:01:26:23.011
Свернуть
Знаете ли вы, что...
Режиссером фильма должен был стать Уэйн Крамер и начать съемки в феврале 2011 года. Однако из-за занятости Сильвестра Сталлоне на других проектах съемки пришлось отложить, после чего Крамер покинул проект. 11 апреля 2011 года режиссерское кресло занял Уолтер Хилл.

Изначально, на одну из главных ролей Уэй Крамер пригласил Томаса Джейна. Когда Крамер покинул проект, Джейн лично предложил Сталлоне нанять Уолтера Хилла. После того, как Хилл согласился, продюсер фильма Джоэл Силвер «выдворил» Томаса Джейна, так как считал, что в напарниках у Сильвестра Сталлоне должен быть «этнический парень».

Первый фильм Уолтера Хилла, спустя 10 лет после фильма «Обсуждению не подлежит» (2002).

Ближе к концу фильма Бономо встречает Квона в баре, и он снова пьет свой бурбон. Когда они заканчивают разговаривать, он полностью допивает содержимое своего стакана. Но когда опускает его на барную стойку, хорошо видно, что немного напитка еще осталось на дне.

Свернуть
Скриншоты
Изображение
Изображение
Изображение
Изображение
Свернуть
В сети
Профиль  
 Добавлено: 2013-11-03 20:38 (спустя 4 месяца 7 дней)
Аватара пользователя
Стаж: 4 года 5 месяцев
Возраст: 25
Сообщений: 61
Лайков: 2
встаньте пожалуйста на раздачу)))за ранее спасибо)))
_________________
потапов
Не в сети
Профиль  
 Добавлено: 2013-12-03 21:38 (спустя 1 месяц)
Аватара пользователя
Стаж: 9 лет 1 месяц
Сообщений: 64
Лайков: 6
А где найти в переводе Гоблина?
Не в сети
Профиль  
Начать новую темуОтветить на тему  [ Сообщений: 3 ] 
Вы не можете начинать темы
Вы не можете отвечать на сообщения
Вы не можете редактировать свои сообщения
Вы не можете удалять свои сообщения