Правила форума

  • В этом разделе создание новых тем Запрещено.
  • Для создания новых тем пользуйтесь Корневым разделом DVD и HD фильмы.
Начать новую темуОтветить на тему  [ Сообщений: 13 ] 
Торрент файл
Размер: 8.94 GB • Зарегистрирован: 3 года 9 месяцев • Статус: Проверено
Скачан: 223 раза • Желающих скачать: 0 • Поблагодарили: 48 раз
 Раздают: 0  |  0 KB/s  ]   Качают: 0  |  0 KB/s  ] 
 Полного источника не было 2 года 1 месяц 
Сообщения
 Добавлено: 2013-03-04 22:02
Аватара пользователя
Стаж: 5 лет 4 месяца
Возраст: 26
Сообщений: 1658
Спасибок: 45807
Лайков: 69
Неуловимые / Red Dawn


«Не отступать и не сдаваться»



Изображение
Год выпуска: 2013
Страна: Изображение
Жанр: Боевик
Продолжительность: 01:33:00
Перевод: Профессиональный многоголосый [BaibaKo]


Режиссёр: Дэн Брэдли

Сценарий: Кевин Рейнольдс, Карл Эллсуорт, Джереми Пассмор, Джон Милиус

Продюсер: Бо Флинн, Трип Винсон, Кевин Халлоран, Винсент Ньюман, Джон Суоллоу

Оператор: Митчелл Амундсен

Композитор: Рамин Джавади

Xудожник: Доминик Уоткинс, Джина Б. Крэнхем, Том Рита, Катрин Джордж, Дэниэл Б. Клэнси

В ролях: Крис Хемсворт, Эдрианн Палики, Джош Хатчерсон , Эдрианн Палики, Изабель Лукас, Джеффри Дин Морган, Коннор Круз, Эдвин Ходж, Алисса Диаз, Бретт Каллен


Описание: Недалекое будущее. Новый тип оружия сделал даже крупнейшие сверхдержавы беспомощными перед массированным вторжением войск противника. Теперь война пришла в каждый дом. Восемь обычных американских парней и девушек решают не сдаваться без боя. Они организовывают отряд сопротивления «Росомахи». Их миссия — создавать хаос. От их смекалки и силы духа будет зависеть, есть ли у мира шанс пережить красный рассвет Третьей Мировой Войны



Изображение



Бюджет: $65 000 000
Сборы в США: $44 806 783

Мировая премьера:27 сентября 2012.
Российский прокат:14 марта 2013, «Вольга»

Качество: BDRip (1080p)
Формат: MKV
Видео: MPEG-4 AVC, 11.8 Мбит/с, 1920x800, 23.976 кадр/с
Аудио: Русский (AC3, 6 ch, 384 Кбит/с), английский (DTS, 6 ch, 1510 Кбит/c)




MediaInfo
Общее
Уникальный идентификатор : 191360666745727198073521485202975198798 (0x8FF6B94CAF066AAB85E0FECA41398E4E)
Полное имя : D:\образы игр\Red.Dawn.2012.BDRip (1080p).Rus.mkv
Формат : Matroska
Версия формата : Version 4 / Version 2
Размер файла : 8,94 Гбайт
Продолжительность : 1 ч. 33 м.
Общий поток : 13,7 Мбит/сек
Название фильма : BaibaKo.tv presents - Красный рассвет (Неуловимые)
Дата кодирования : UTC 2010-02-22 21:41:31
Программа кодирования : mkvmerge v5.9.0 ('On The Loose') built on Dec 9 2012 15:37:01
Библиотека кодирования : libebml v1.3.0 + libmatroska v1.4.0

Видео
Идентификатор : 1
Формат : AVC
Формат/Информация : Advanced Video Codec
Профиль формата : High@L4.1
Параметр CABAC формата : Да
Параметр ReFrames формата : 5 кадров
Идентификатор кодека : V_MPEG4/ISO/AVC
Продолжительность : 1 ч. 33 м.
Битрейт : 11,8 Мбит/сек
Ширина : 1920 пикселей
Высота : 800 пикселей
Соотношение сторон : 2,40:1
Режим частоты кадров : Постоянный
Частота кадров : 23,976 кадра/сек
Цветовое пространство : YUV
Субдискретизация насыщенности : 4:2:0
Битовая глубина : 8 бит
Тип развёртки : Прогрессивная
Бит/(Пиксели*Кадры) : 0.322
Размер потока : 7,53 Гбайт (84%)
Заголовок : Red.Dawn.2012
Библиотека кодирования : x264 core 125 r2208 d9d2288
Настройки программы : cabac=1 / ref=5 / deblock=1:-3:-3 / analyse=0x3:0x113 / me=umh / subme=10 / psy=1 / psy_rd=1.05:0.10 / mixed_ref=1 / me_range=32 / chroma_me=1 / trellis=2 / 8x8dct=1 / cqm=0 / deadzone=21,11 / fast_pskip=0 / chroma_qp_offset=-2 / threads=8 / lookahead_threads=1 / sliced_threads=0 / nr=0 / decimate=1 / interlaced=0 / bluray_compat=0 / constrained_intra=0 / bframes=6 / b_pyramid=2 / b_adapt=2 / b_bias=0 / direct=3 / weightb=1 / open_gop=0 / weightp=2 / keyint=250 / keyint_min=23 / scenecut=40 / intra_refresh=0 / rc=2pass / mbtree=0 / bitrate=11847 / ratetol=1.0 / qcomp=0.70 / qpmin=0 / qpmax=69 / qpstep=4 / cplxblur=20.0 / qblur=0.5 / ip_ratio=1.40 / pb_ratio=1.30 / aq=2:0.90
Язык : English
Default : Да
Forced : Нет

Аудио #1
Идентификатор : 2
Формат : AC-3
Формат/Информация : Audio Coding 3
Расширение режима : CM (complete main)
Параметр Endianness формата : Big
Идентификатор кодека : A_AC3
Продолжительность : 1 ч. 33 м.
Вид битрейта : Постоянный
Битрейт : 384 Кбит/сек
Каналы : 6 каналов
Расположение каналов : Front: L C R, Side: L R, LFE
Частота : 48,0 КГц
Битовая глубина : 16 бит
Метод сжатия : С потерями
Размер потока : 256 Мбайт (3%)
Заголовок : Rus BaibaKo.tv DD5.1
Язык : Russian
Default : Да
Forced : Нет

Аудио #2
Идентификатор : 3
Формат : DTS
Формат/Информация : Digital Theater Systems
Режим : 16
Параметр Endianness формата : Big
Идентификатор кодека : A_DTS
Продолжительность : 1 ч. 33 м.
Вид битрейта : Постоянный
Битрейт : 1509 Кбит/сек
Каналы : 6 каналов
Расположение каналов : Front: L C R, Side: L R, LFE
Частота : 48,0 КГц
Битовая глубина : 24 бит
Метод сжатия : С потерями
Размер потока : 1008 Мбайт (11%)
Заголовок : Eng DD5.1
Язык : English
Default : Нет
Forced : Нет



Свернуть

Трейлер
Свернуть

Скриншоты
Изображение
Изображение
Изображение
Свернуть
_________________
S.T.A.L.K.E.R.: Lost Alpha


Последний раз редактировалось R.G. Механики 2013-03-04 22:34, всего редактировалось 1 раз.
Не в сети
Профиль  
 Добавлено: 2013-03-04 22:07 (спустя 5 минут)
Аватара пользователя
Стаж: 3 года 9 месяцев
Сообщений: 45
Спасибок: 60
Как фильм :)
Не в сети
Профиль  
 Добавлено: 2013-03-04 22:09 (спустя 1 минута)
Аватара пользователя
Стаж: 5 лет 4 месяца
Возраст: 26
Сообщений: 1658
Спасибок: 45807
Лайков: 69
VladislavSuldin
Похоже на игру Homefront :co_ol:
_________________
S.T.A.L.K.E.R.: Lost Alpha
Не в сети
Профиль  
 Добавлено: 2013-03-04 22:29 (спустя 20 минут)
Bumblebee
Аватара пользователя
Стаж: 7 лет 9 месяцев
Сообщений: 8249
Спасибок: 346370
Лайков: 2732
Лицензия?? Серьезно
_________________
Изображение
Transformers Battle Ops Bumblebee Transformation & Alt Mode Costco Exclusive Limited Edition Metallic Finish
http://www.youtube.com/watch?v=atQ5oDjfj7M#t=68
Свернуть
Не в сети
Профиль  
 Добавлено: 2013-03-04 22:40 (спустя 10 минут)
Модератор
Аватара пользователя
Стаж: 9 лет
Сообщений: 3446
Спасибок: 1556
Лайков: 77
Сюжет наверное как всегда смешон и не сколько подростков опять побеждают целую армию, но посмотрим все равно :)
_________________
Пока тут пусто.
Не в сети
Профиль  
 Добавлено: 2013-03-05 06:33 (спустя 7 часов)
Модератор релиз-группы
Аватара пользователя
Стаж: 6 лет 5 месяцев
Возраст: 25
Сообщений: 622
Спасибок: 10257
Лайков: 7
Помогу раздать! :)
_________________
Изображение
Не в сети
Профиль  
 Добавлено: 2013-03-05 19:41 (спустя 13 часов)
Аватара пользователя
Стаж: 5 лет 4 месяца
Возраст: 26
Сообщений: 1658
Спасибок: 45807
Лайков: 69
Slovetskii
:-ok-:
_________________
S.T.A.L.K.E.R.: Lost Alpha
Не в сети
Профиль  
 Добавлено: 2013-03-05 22:23 (спустя 2 часа 42 минуты)
Стаж: 5 лет 3 месяца
Сообщений: 150
Лайков: 1
За первые 15 минут просмотра в мою голову залезли мысли что фильм даже ничего!Но потом!Всё встало на свои места!Фильм просто пипец какой идиотский!
Не в сети
Профиль  
 Добавлено: 2013-03-07 21:04 (спустя 1 день 22 часа)
Стаж: 8 лет 9 месяцев
Сообщений: 13
Согласен,единственный фильм с военными действиями который мне совсем не понравился. реалестичности -1000000000000000
Не в сети
Профиль  
 Добавлено: 2013-03-13 17:10 (спустя 5 дней)
Аватара пользователя
Стаж: 9 лет
Сообщений: 131
Спасибок: 2097
Лайков: 4

melani:

Согласен,единственный фильм с военными действиями который мне совсем не понравился. реалестичности -1000000000000000
Недалекое будущее! Уважаемый melani, откуда ВЫ знаете, что будет и как там будет, в будущем. Вы фантаст?
Не в сети
Профиль  
 Добавлено: 2013-03-13 18:04 (спустя 54 минуты)
Аватара пользователя
Стаж: 8 лет 6 месяцев
Сообщений: 21
такой фильм уже был давным давно " красный рассвет" вроде
Не в сети
Профиль  
 Добавлено: 2013-04-20 18:33 (спустя 1 месяц 7 дней)
Аватара пользователя
Стаж: 8 лет
Сообщений: 1390
Спасибок: 39
Лайков: 64
rok75
так и это красный рассвет :hi_hi_hi:
Не в сети
Профиль  
 Добавлено: 2013-04-20 19:45 (спустя 1 час 12 минут)
Аватара пользователя
Стаж: 8 лет 7 месяцев
Сообщений: 42
Лайков: 7
ferguson
Неа, это красный закат.
Не в сети
Профиль  
Начать новую темуОтветить на тему  [ Сообщений: 13 ] 
Вы не можете начинать темы
Вы не можете отвечать на сообщения
Вы не можете редактировать свои сообщения
Вы не можете удалять свои сообщения