Правила форума

  • В этом разделе создание новых тем Запрещено.
  • Для создания новых тем пользуйтесь Корневым разделом DVD и HD фильмы.
Начать новую темуОтветить на тему  [ Сообщений: 4 ] 
Торрент файл
Размер: 9.93 GB • Зарегистрирован: 3 года 7 месяцев • Статус: Проверено
Скачан: 171 раз • Желающих скачать: 0 • Поблагодарили: 41 раз
 Раздают: 0  |  0 KB/s  ]   Качают: 0  |  0 KB/s  ] 
 Полного источника не было 1 год 6 месяцев 
Сообщения
 Добавлено: 2013-04-20 13:15
Аватара пользователя
Стаж: 9 лет 1 месяц
Сообщений: 8114
Спасибок: 122347
Лайков: 1196
Неуловимые / Red Dawn

Изображение


Год выпуска: 2012
Страна: Изображение США
Жанр: боевик
Продолжительность: 01:33:00
Субтитры: Русские, английские
Перевод: Профессиональный (полное дублирование) [Лицензия]


Режиссёр: Дэн Брэдли
Сценарист: Кевин Рейнольдс, Карл Эллсуорт, Джереми Пассмор
Продюсер: Бо Флинн, Трип Винсон, Кевин Халлоран
Оператор: Митчелл Амундсен
Композитор: Рамин Джавади

В ролях: Крис Хемсворт, Джош Пек, Джош Хатчерсон, Эдрианн Палики, Изабель Лукас, Джеффри Дин Морган, Коннор Круз, Эдвин Ходж, Алисса Диаз, Бретт Каллен

Описание: Недалекое будущее. Новый тип оружия сделал даже крупнейшие сверхдержавы беспомощными перед массированным вторжением войск противника. Теперь война пришла в каждый дом. Восемь обычных американских парней и девушек решают не сдаваться без боя. Они организовывают отряд сопротивления «Росомахи». Их миссия — создавать хаос. От их смекалки и силы духа будет зависеть, есть ли у мира шанс пережить красный рассвет Третьей Мировой Войны

Изображение Изображение

Раздача группы: Изображение

Качество: BDRip (1080p)
Формат: Matroska
Видео: MPEG-4 AVC, 11.8 Мбит/с, 1920x800, 23.976 кадр/с
Аудио №1: Русский (AC3, 48,0 КГц, 6 ch, 384 Кбит/c)
Аудио №2: Русский (DTS, 48,0 КГц, 6 ch, 1510 Кбит/c)
Аудио №3: Английский (DTS, 48,0 КГц, 6 ch, 1510 Кбит/c)

MediaInfo
Общее
Уникальный идентификатор : 230408469245348495965208595087791111370 (0xAD570E99E95CCE9BB1E7F4B825023CCA)
Полное имя : C:\Фильмы\Neulovimje.2012.BDRip (1080p).Rus.R.G.Daredevil.mkv
Формат : Matroska
Версия формата : Version 2
Размер файла : 9,93 Гбайт
Продолжительность : 1 ч. 33 м.
Общий поток : 15,2 Мбит/сек
Название фильма : BaibaKo.tv presents - Красный рассвет (Неуловимые)
Дата кодирования : UTC 2013-04-20 09:47:46
Программа кодирования : mkvmerge v5.7.0 ('The Whirlwind') built on Jul 29 2012 15:12:35
Библиотека кодирования : libebml v1.2.3 + libmatroska v1.3.0

Видео
Идентификатор : 1
Формат : AVC
Формат/Информация : Advanced Video Codec
Профиль формата : High@L4.1
Параметр CABAC формата : Да
Параметр ReFrames формата : 5 кадров
Идентификатор кодека : V_MPEG4/ISO/AVC
Продолжительность : 1 ч. 33 м.
Битрейт : 11,8 Мбит/сек
Ширина : 1920 пикселей
Высота : 800 пикселей
Соотношение сторон : 2,40:1
Режим частоты кадров : Постоянный
Частота кадров : 23,976 кадра/сек
Цветовое пространство : YUV
Субдискретизация насыщенности : 4:2:0
Битовая глубина : 8 бит
Тип развёртки : Прогрессивная
Бит/(Пиксели*Кадры) : 0.322
Размер потока : 7,51 Гбайт (76%)
Заголовок : Red.Dawn.2012
Библиотека кодирования : x264 core 125 r2208 d9d2288
Настройки программы : cabac=1 / ref=5 / deblock=1:-3:-3 / analyse=0x3:0x113 / me=umh / subme=10 / psy=1 / psy_rd=1.05:0.10 / mixed_ref=1 / me_range=32 / chroma_me=1 / trellis=2 / 8x8dct=1 / cqm=0 / deadzone=21,11 / fast_pskip=0 / chroma_qp_offset=-2 / threads=8 / lookahead_threads=1 / sliced_threads=0 / nr=0 / decimate=1 / interlaced=0 / bluray_compat=0 / constrained_intra=0 / bframes=6 / b_pyramid=2 / b_adapt=2 / b_bias=0 / direct=3 / weightb=1 / open_gop=0 / weightp=2 / keyint=250 / keyint_min=23 / scenecut=40 / intra_refresh=0 / rc=2pass / mbtree=0 / bitrate=11847 / ratetol=1.0 / qcomp=0.70 / qpmin=0 / qpmax=69 / qpstep=4 / cplxblur=20.0 / qblur=0.5 / ip_ratio=1.40 / pb_ratio=1.30 / aq=2:0.90
Язык : English
Default : Да
Forced : Нет

Аудио #1
Идентификатор : 2
Формат : AC-3
Формат/Информация : Audio Coding 3
Расширение режима : CM (complete main)
Параметр Endianness формата : Big
Идентификатор кодека : A_AC3
Продолжительность : 1 ч. 33 м.
Вид битрейта : Постоянный
Битрейт : 384 Кбит/сек
Каналы : 6 каналов
Расположение каналов : Front: L C R, Side: L R, LFE
Частота : 48,0 КГц
Битовая глубина : 16 бит
Метод сжатия : С потерями
Размер потока : 256 Мбайт (3%)
Язык : Russian
Default : Да
Forced : Да

Аудио #2
Идентификатор : 3
Формат : DTS
Формат/Информация : Digital Theater Systems
Режим : 16
Параметр Endianness формата : Big
Идентификатор кодека : A_DTS
Продолжительность : 1 ч. 33 м.
Вид битрейта : Постоянный
Битрейт : 1509 Кбит/сек
Каналы : 6 каналов
Расположение каналов : Front: L C R, Side: L R, LFE
Частота : 48,0 КГц
Битовая глубина : 24 бит
Метод сжатия : С потерями
Размер потока : 1008 Мбайт (10%)
Заголовок : DTS 5.1 @ 1536 kbps - DUB, Blu-ray
Язык : Russian
Default : Нет
Forced : Нет

Аудио #3
Идентификатор : 4
Формат : DTS
Формат/Информация : Digital Theater Systems
Режим : 16
Параметр Endianness формата : Big
Идентификатор кодека : A_DTS
Продолжительность : 1 ч. 33 м.
Вид битрейта : Постоянный
Битрейт : 1509 Кбит/сек
Каналы : 6 каналов
Расположение каналов : Front: L C R, Side: L R, LFE
Частота : 48,0 КГц
Битовая глубина : 24 бит
Метод сжатия : С потерями
Размер потока : 1008 Мбайт (10%)
Заголовок : Eng DD5.1
Язык : English
Default : Нет
Forced : Нет

Текст #1
Идентификатор : 5
Формат : UTF-8
Идентификатор кодека : S_TEXT/UTF8
Идентификатор кодека/Информация : UTF-8 Plain Text
Заголовок : Blu-ray
Язык : Russian
Default : Нет
Forced : Нет

Текст #2
Идентификатор : 6
Формат : UTF-8
Идентификатор кодека : S_TEXT/UTF8
Идентификатор кодека/Информация : UTF-8 Plain Text
Заголовок : Full
Язык : English
Default : Нет
Forced : Нет

Текст #3
Идентификатор : 7
Формат : UTF-8
Идентификатор кодека : S_TEXT/UTF8
Идентификатор кодека/Информация : UTF-8 Plain Text
Заголовок : SDH
Язык : English
Default : Нет
Forced : Нет

Текст #4
Идентификатор : 8
Формат : UTF-8
Идентификатор кодека : S_TEXT/UTF8
Идентификатор кодека/Информация : UTF-8 Plain Text
Заголовок : SDH Colored
Язык : English
Default : Нет
Forced : Нет

Меню
00:00:00.000 : :00:00:00.000
00:02:54.383 : :00:02:54.383
00:05:01.384 : :00:05:01.384
00:07:54.474 : :00:07:54.474
00:10:24.833 : :00:10:24.833
00:16:08.217 : :00:16:08.217
00:18:55.551 : :00:18:55.551
00:21:32.583 : :00:21:32.583
00:23:02.798 : :00:23:02.798
00:27:06.667 : :00:27:06.667
00:31:16.833 : :00:31:16.833
00:36:29.396 : :00:36:29.396
00:41:27.985 : :00:41:27.985
00:43:40.743 : :00:43:40.743
00:50:37.618 : :00:50:37.618
00:53:56.442 : :00:53:56.442
00:57:04.171 : :00:57:04.171
00:59:06.918 : :00:59:06.918
01:03:11.454 : :01:03:11.454
01:07:17.075 : :01:07:17.075
01:09:55.858 : :01:09:55.858
01:11:51.098 : :01:11:51.098
01:15:40.911 : :01:15:40.911
01:18:19.904 : :01:18:19.904
01:20:55.809 : :01:20:55.809
01:22:55.262 : :01:22:55.262
01:25:58.695 : :01:25:58.695
01:28:26.301 : :01:28:26.301
Свернуть
Знаете ли вы, что...
Производство фильма было завершено в 2009 году. Релиз был намечен на 24 ноября 2010 года, но из-за финансовых трудностей MGM фильм «лёг на полку». Еще одной причиной послужила роль Криса Хемсворта в фильме «Мстители» (2012), студия решила, что кассовые сборы фильма «Неуловимые» (2012) будут лучше за счет известности, которую приобретет актер после «Мстителей».

Изначально роль захватчиков в фильме была отведена китайцам. За время пост-продакшена они были заменены на северных корейцев, чтобы получить возможность проката картины в Китае.

Крис Хемсворт и Изабель Лукас оба снимались в сериале «Домой и в путь» (1988) и состояли в отношениях в реальной жизни.
В оригинальном фильме «Красный рассвет» (1984) армией вторжения были войска Советского Союза и Кубы.

Когда герои разговаривают о том, что они потеряли, один из них упоминает игру «Call of Duty: Modern Warfare». Но миссия, где иностранная армия вторгается в Америку, которая как раз была создана по мотивам оригинального фильма 1984 года, была во второй части этой игры — «Modern Warfare 2».

Когда Роберт Китнер (Джош Хатчерсон) стреляет из пулемета на крыше, камера показывает, что у него остается всего 5 патронов в ленте, но он совершает еще около 40 выстрелов.

Когда Джеду и остальным удается сбежать на грузовике, они едут по бездорожью. В этот момент видно, что из выхлопной трубы не идет дыма. Когда они возвращаются на дорогу, дым неожиданно начинает валить из трубы. А в следующем кадре он снова пропадает.

Когда Джед, смотря через прицел, распознает русского спецназовца, с прицела не снят защитный колпачок, и на самом деле Джед не мог ничего увидеть.

Свернуть
Скриншоты
Изображение
Изображение
Изображение
Свернуть
В сети
Профиль  
 Добавлено: 2013-04-21 00:48 (спустя 11 часов)
Аватара пользователя
Стаж: 8 лет 10 месяцев
Сообщений: 1170
Спасибок: 1294
Лайков: 7
трешеватый трейлер, и такая задержка с выходом в России... смотреть стоит?
Не в сети
Профиль  
 Добавлено: 2013-04-21 12:14 (спустя 11 часов)
Стаж: 7 лет
Сообщений: 8
редчайшее дерьмо
Не в сети
Профиль  
 Добавлено: 2013-05-03 19:01 (спустя 12 дней)
Аватара пользователя
Стаж: 7 лет 10 месяцев
Возраст: 41
Сообщений: 41
Видимо действительно не долго осталось... Вся эта напруха на войну не случайна. В FC3 даже античиты отключили, чтобы шпана набиралась драйва и жажды крови. :sh_ok:
Не в сети
Профиль  
Начать новую темуОтветить на тему  [ Сообщений: 4 ] 
Вы не можете начинать темы
Вы не можете отвечать на сообщения
Вы не можете редактировать свои сообщения
Вы не можете удалять свои сообщения