Правила форума

  • В этом разделе создание новых тем Запрещено.
  • Для создания новых тем пользуйтесь Корневым разделом DVD и HD фильмы.
Начать новую темуОтветить на тему  [ Сообщений: 3 ] 
Торрент файл
Размер: 25.57 GB • Зарегистрирован: 3 года 8 месяцев • Статус: Проверено
Скачан: 33 раза • Желающих скачать: 0 • Поблагодарили: 10 раз
 Раздают: 0  |  0 KB/s  ]   Качают: 0  |  0 KB/s  ] 
 Полного источника не было 3 года 2 месяца 
Сообщения
 Добавлено: 2013-03-10 09:48
Аватара пользователя
Стаж: 6 лет 4 месяца
Сообщений: 164
Спасибок: 151
Лайков: 9
Неуправляемый / Unstoppable

Изображение


Год выпуска: 2010
Страна: США
Жанр: Боевик, триллер, драма
Продолжительность: 01:38:30
Версия фильма: Unrated / Полная версия
Перевод: Русский DTS 5.1, 48 KHz, 768 kbps
Субтитры: Русские, русские (только надписи и пр.), украинские, украинские (только надписи и пр.), английские, английские (для плохослышащих), английские (PGS)

Режиссёр: Тони Скотт
В ролях: Дензел Вашингтон, Крис Пайн, Розарио Доусон, Этан Сапли, Кевин Данн, Кевин Корригэн, Кевин Чэпмен, Лью Темпл, ТиДжей Миллер, Джесси Шрэм
Описание: Потерявший управление огромный беспилотный локомотив с токсичным грузом несется, сметая все на своем пути. Но главная опасность состоит в том, что если он сойдет с рельсов на очередном вираже, химической катастрофы не избежать. Все силы задействованы, все попытки остановить монстра тщетны, планов на спасение не осталось. Впрочем…

Рейтинг MPAA: Рейтинг PG-13 (Дети до 13 лет допускаются на фильм только с родителями)
Изображение
Изображение

Качество: BDRemux
Формат: MKV
Видео кодек: H.264
Аудио кодек: DTS
Видео: 1920x1080, 32199 kbps, 23.976 fps
Аудио #1:Русский DTS 5.1, 48 KHz, 768 kbps
Аудио #2:Английский DTS-HD Master Audio 5.1, 48 KHz, 24 bit, 3942 kbps, Lossless (DTS Core: 5.1, 48 KHz, 24bit, 1536 kbps)
Аудио #3:Английский AC3 2.0, 48 KHz, 224 kbps (комментарии режиссёра)
Аудио #4:Английский AC3 2.0, 48 KHz, 224 kbps (Tracking the Story: Unstoppable Script Development)
Субтитры: Русские, русские (только надписи и пр.), украинские, украинские (только надписи и пр.), английские, английские (для плохослышащих), английские (PGS)

Изображение

MediaInfo
General
Unique ID : 202926874972217214461648026162366378459 (0x98AA4B648C4E4BD9AB783481DED5F1DB)
Complete name : Unstoppable.2010.BD.Remux.1080p.h264.Rus.Eng.Commentary.mkv
Format : Matroska
File size : 25.6 GiB
Duration : 1h 38mn
Overall bit rate : 37.2 Mbps
Encoded date : UTC 2011-01-23 20:44:46
Writing application : mkvmerge v4.4.0 ('Die Wiederkehr') built on Oct 31 2010 21:52:48
Writing library : libebml v1.0.0 + libmatroska v1.0.0

Video
ID : 1
Format : AVC
Format/Info : Advanced Video Codec
Format profile : High@L4.1
Format settings, CABAC : Yes
Format settings, ReFrames : 4 frames
Muxing mode : Container profile=Unknown@0.0
Codec ID : V_MPEG4/ISO/AVC
Duration : 1h 38mn
Bit rate mode : Variable
Bit rate : 33.4 Mbps
Maximum bit rate : 35.5 Mbps
Width : 1 920 pixels
Height : 1 080 pixels
Display aspect ratio : 16:9
Frame rate : 23.976 fps
Color space : YUV
Chroma subsampling : 4:2:0
Bit depth : 8 bits
Scan type : Progressive
Bits/(Pixel*Frame) : 0.671
Stream size : 23.0 GiB (90%)
Language : English
Color primaries : BT.709-5, BT.1361, IEC 61966-2-4, SMPTE RP177
Transfer characteristics : BT.709-5, BT.1361
Matrix coefficients : BT.709-5, BT.1361, IEC 61966-2-4 709, SMPTE RP177

Audio #1
ID : 2
Format : DTS
Format/Info : Digital Theater Systems
Codec ID : A_DTS
Duration : 1h 38mn
Bit rate mode : Constant
Bit rate : 755 Kbps
Channel(s) : 6 channels
Channel positions : Front: L C R, Side: L R, LFE
Sampling rate : 48.0 KHz
Bit depth : 24 bits
Compression mode : Lossy
Stream size : 532 MiB (2%)
Title : DTS 5.1 768 kbps
Language : Russian

Audio #2
ID : 3
Format : DTS
Format/Info : Digital Theater Systems
Format profile : MA / Core
Codec ID : A_DTS
Duration : 1h 38mn
Bit rate mode : Variable
Bit rate : 1 858 Kbps / 1 510 Kbps
Channel(s) : 6 channels
Channel positions : Front: L C R, Side: L R, LFE
Sampling rate : 48.0 KHz
Bit depth : 24 bits
Compression mode : Lossless / Lossy
Title : DTS-HD Master Audio, 5.1, 3942 kbps, 24 bit, Lossless (1536 kbps core)
Language : English

Audio #3
ID : 4
Format : AC-3
Format/Info : Audio Coding 3
Mode extension : CM (complete main)
Codec ID : A_AC3
Duration : 1h 38mn
Bit rate mode : Constant
Bit rate : 224 Kbps
Channel(s) : 2 channels
Channel positions : Front: L R
Sampling rate : 48.0 KHz
Bit depth : 16 bits
Compression mode : Lossy
Stream size : 158 MiB (1%)
Title : Commentary with Director Tony Scott AC3 2.0 224 kbps
Language : English

Audio #4
ID : 5
Format : AC-3
Format/Info : Audio Coding 3
Mode extension : CM (complete main)
Codec ID : A_AC3
Duration : 1h 38mn
Bit rate mode : Constant
Bit rate : 224 Kbps
Channel(s) : 2 channels
Channel positions : Front: L R
Sampling rate : 48.0 KHz
Bit depth : 16 bits
Compression mode : Lossy
Stream size : 158 MiB (1%)
Title : Tracking the Story: Unstoppable Script Development AC3 2.0 224 kbps
Language : English

Text #1
ID : 6
Format : UTF-8
Codec ID : S_TEXT/UTF8
Codec ID/Info : UTF-8 Plain Text
Language : Russian

Text #2
ID : 7
Format : UTF-8
Codec ID : S_TEXT/UTF8
Codec ID/Info : UTF-8 Plain Text
Title : Tol'ko nadpisi
Language : Russian

Text #3
ID : 8
Format : UTF-8
Codec ID : S_TEXT/UTF8
Codec ID/Info : UTF-8 Plain Text
Language : Ukrainian

Text #4
ID : 9
Format : UTF-8
Codec ID : S_TEXT/UTF8
Codec ID/Info : UTF-8 Plain Text
Title : Tol'ko nadpisi
Language : Ukrainian

Text #5
ID : 10
Format : UTF-8
Codec ID : S_TEXT/UTF8
Codec ID/Info : UTF-8 Plain Text
Language : English

Text #6
ID : 11
Format : UTF-8
Codec ID : S_TEXT/UTF8
Codec ID/Info : UTF-8 Plain Text
Title : SDH
Language : English

Text #7
ID : 12
Format : PGS
Muxing mode : zlib
Codec ID : S_HDMV/PGS
Codec ID/Info : The same subtitle format used on BDs/HD-DVDs
Title : SDH, PGS (directly from Blu-Ray)
Language : English

Menu
00:00:00.000 : en:Chapter 1
00:04:45.619 : en:Chapter 2
00:09:41.456 : en:Chapter 3
00:14:37.668 : en:Chapter 4
00:18:10.965 : en:Chapter 5
00:20:58.841 : en:Chapter 6
00:22:58.919 : en:Chapter 7
00:25:31.363 : en:Chapter 8
00:30:16.523 : en:Chapter 9
00:33:58.411 : en:Chapter 10
00:37:38.506 : en:Chapter 11
00:39:59.105 : en:Chapter 12
00:41:28.569 : en:Chapter 13
00:46:36.919 : en:Chapter 14
00:49:18.706 : en:Chapter 15
00:52:24.933 : en:Chapter 16
00:54:13.584 : en:Chapter 17
00:58:44.146 : en:Chapter 18
01:01:02.742 : en:Chapter 19
01:03:14.290 : en:Chapter 20
01:07:20.787 : en:Chapter 21
01:10:00.154 : en:Chapter 22
01:15:11.465 : en:Chapter 23
01:18:24.533 : en:Chapter 24
01:21:13.410 : en:Chapter 25
01:24:53.505 : en:Chapter 26
01:30:31.551 : en:Chapter 27
01:32:58.865 : en:Chapter 28
Свернуть
Скриншоты
ИзображениеИзображение
ИзображениеИзображение
ИзображениеИзображение
Свернуть

*Не забываем про спасибо*
Не в сети
Профиль  
 Добавлено: 2013-03-31 10:42 (спустя 21 день)
Аватара пользователя
Стаж: 6 лет 4 месяца
Сообщений: 164
Спасибок: 151
Лайков: 9
Забираем, народ, не стесняемся.
Не в сети
Профиль  
 Добавлено: 2013-04-04 16:38 (спустя 4 дня)
Стаж: 8 лет 9 месяцев
Сообщений: 12
Что не читает на Pioneer BDP-150 :(
Не в сети
Профиль  
Начать новую темуОтветить на тему  [ Сообщений: 3 ] 
Вы не можете начинать темы
Вы не можете отвечать на сообщения
Вы не можете редактировать свои сообщения
Вы не можете удалять свои сообщения