Правила форума

  • В этом разделе создание новых тем Запрещено.
  • Для создания новых тем пользуйтесь Корневым разделом DVD и HD фильмы.
Начать новую темуОтветить на тему  [ Сообщений: 3 ] 
Торрент файл
Размер: 12.56 GB • Зарегистрирован: 5 лет 10 месяцев • Статус: Проверено
Скачан: 176 раз • Желающих скачать: 0 • Поблагодарили: 25 раз
 Раздают: 2  |  0 KB/s  ]   Качают: 0  |  0 KB/s  ] 
Сообщения
 Добавлено: 2011-01-23 03:01
Аватара пользователя
Стаж: 8 лет
Возраст: 30
Сообщений: 846
Спасибок: 982
Лайков: 1
Неуправляемый / Unstoppable

Изображение

Страна: США
Жанр: Боевик, триллер, драма
Продолжительность: 01:38:30
Перевод: Профессиональный (полное дублирование)
Русские субтитры: есть


Режиссер: Тони Скотт
В ролях: Дензел Вашингтон, Крис Пайн, Розарио Доусон, Этан Сапли, Кевин Данн,
Кевин Корригэн, Кевин Чэпмен, Лью Темпл, ТиДжей Миллер, Джесси Шрэм

Описание: Потерявший управление огромный беспилотный локомотив с токсичным грузом несется, сметая все на своем пути.
Но главная опасность состоит в том, что если он сойдет с рельсов на очередном вираже, химической катастрофы не избежать.
Все силы задействованы, все попытки остановить монстра тщетны, планов на спасение не осталось. Впрочем…


Качество: BDRip
Формат: MKV
Видео кодек: H.264
Аудио кодек: DTS
Видео: 1920x800, 16000 kbps, 23.976 fps
Аудио1: Русский DTS 5.1, 48 KHz, 768 kbps
Аудио2: Английский DTS 5.1, 48 KHz, 1536 kbps
Субтитры: Русские, русские (только надписи и пр.), украинские, украинские (только надписи и пр.), английские


MediaInfo
General
Unique ID : 174909102965291832116995487832838785685 (0x83964494BEDAAFDDA6ABBDD04AE44A95)
Complete name : Unstoppable.2010.BD.Rip.1080p.h264.Rus.Eng.mkv
Format : Matroska
File size : 12.6 GiB
Duration : 1h 38mn
Overall bit rate : 18.2 Mbps
Encoded date : UTC 2011-01-22 19:17:37
Writing application : mkvmerge v4.4.0 ('Die Wiederkehr') built on Oct 31 2010 21:52:48
Writing library : libebml v1.0.0 + libmatroska v1.0.0

Video
ID : 1
Format : AVC
Format/Info : Advanced Video Codec
Format profile : High@L4.1
Format settings, CABAC : Yes
Format settings, ReFrames : 5 frames
Codec ID : V_MPEG4/ISO/AVC
Duration : 1h 38mn
Bit rate : 16.0 Mbps
Width : 1 920 pixels
Height : 800 pixels
Display aspect ratio : 2.40:1
Frame rate : 23.976 fps
Color space : YUV
Chroma subsampling : 4:2:0
Bit depth : 8 bits
Scan type : Progressive
Bits/(Pixel*Frame) : 0.434
Stream size : 10.8 GiB (86%)
Writing library : x264 core 107 r1766 f9f0035
Encoding settings : cabac=1 / ref=5 / deblock=1:-3:-3 / analyse=0x3:0x113 / me=umh / subme=10 / psy=1 / psy_rd=1.05:0.10 / mixed_ref=1 / me_range=48 / chroma_me=1 / trellis=2 / 8x8dct=1 / cqm=2 / deadzone=21,11 / fast_pskip=0 / chroma_qp_offset=-2 / threads=12 / sliced_threads=0 / nr=0 / decimate=1 / interlaced=0 / constrained_intra=0 / bframes=6 / b_pyramid=2 / b_adapt=2 / b_bias=0 / direct=3 / weightb=1 / open_gop=0 / weightp=2 / keyint=250 / keyint_min=23 / scenecut=40 / intra_refresh=0 / rc_lookahead=60 / rc=2pass / mbtree=1 / bitrate=16000 / ratetol=1.0 / qcomp=0.70 / qpmin=10 / qpmax=51 / qpstep=4 / cplxblur=20.0 / qblur=0.5 / vbv_maxrate=40000 / vbv_bufsize=30000 / ip_ratio=1.40 / aq=1:0.90 / nal_hrd=none
Language : English

Audio #1
ID : 2
Format : DTS
Format/Info : Digital Theater Systems
Codec ID : A_DTS
Duration : 1h 38mn
Bit rate mode : Constant
Bit rate : 755 Kbps
Channel(s) : 6 channels
Channel positions : Front: L C R, Side: L R, LFE
Sampling rate : 48.0 KHz
Bit depth : 24 bits
Compression mode : Lossy
Stream size : 532 MiB (4%)
Title : DTS 5.1 768 kbps
Language : Russian

Audio #2
ID : 3
Format : DTS
Format/Info : Digital Theater Systems
Codec ID : A_DTS
Duration : 1h 38mn
Bit rate mode : Constant
Bit rate : 1 510 Kbps
Channel(s) : 6 channels
Channel positions : Front: L C R, Side: L R, LFE
Sampling rate : 48.0 KHz
Bit depth : 24 bits
Compression mode : Lossy
Stream size : 1.04 GiB (8%)
Title : DTS 5.1 1536 kbps
Language : English

Text #1
ID : 4
Format : UTF-8
Codec ID : S_TEXT/UTF8
Codec ID/Info : UTF-8 Plain Text
Language : Russian

Text #2
ID : 5
Format : UTF-8
Codec ID : S_TEXT/UTF8
Codec ID/Info : UTF-8 Plain Text
Title : Tol'ko nadpisi
Language : Russian

Text #3
ID : 6
Format : UTF-8
Codec ID : S_TEXT/UTF8
Codec ID/Info : UTF-8 Plain Text
Language : Ukrainian

Text #4
ID : 7
Format : UTF-8
Codec ID : S_TEXT/UTF8
Codec ID/Info : UTF-8 Plain Text
Title : Tol'ko nadpisi
Language : Ukrainian

Text #5
ID : 8
Format : UTF-8
Codec ID : S_TEXT/UTF8
Codec ID/Info : UTF-8 Plain Text
Language : English
Свернуть
Скриншоты
Изображение
Изображение
Изображение
Изображение
Свернуть
_________________
Я в контакте !


Последний раз редактировалось gecsogen 2011-01-23 14:08, всего редактировалось 1 раз.
Не в сети
Профиль  
 Добавлено: 2011-01-23 13:43 (спустя 10 часов)
Top-releaser
Аватара пользователя
Стаж: 6 лет 11 месяцев
Возраст: 23
Сообщений: 2084
Спасибок: 11187
Лайков: 13
Похоже на Повтор• NNTT.ORG,но нет.
_________________
Изображение
РАЗДАЧИ БОЛЬШЕ НЕ ПОДДЕРЖИВАЮ, простите.


Последний раз редактировалось Junk666 2011-01-23 14:13, всего редактировалось 1 раз.
Не в сети
Профиль  
 Добавлено: 2011-01-23 14:06 (спустя 23 минуты)
Аватара пользователя
Стаж: 8 лет
Возраст: 30
Сообщений: 846
Спасибок: 982
Лайков: 1
В моём релизе аудиодорожка гораздо лучше, субтитров выбор больше, так что я думаю если уж не оба оставлять, то мой.
_________________
Я в контакте !
Не в сети
Профиль  
Начать новую темуОтветить на тему  [ Сообщений: 3 ] 
Вы не можете начинать темы
Вы не можете отвечать на сообщения
Вы не можете редактировать свои сообщения
Вы не можете удалять свои сообщения