Правила форума

  • В этом разделе создание новых тем Запрещено.
  • Для создания новых тем пользуйтесь Корневым разделом DVD и HD фильмы.
Начать новую темуОтветить на тему  [ Сообщений: 3 ] 
Торрент файл
Размер: 6.49 GB • Зарегистрирован: 2 года 8 месяцев • Статус: Проверено
Скачан: 145 раз • Желающих скачать: 0 • Поблагодарили: 56 раз
 Раздают: 1  |  0 KB/s  ]   Качают: 0  |  0 KB/s  ] 
Сообщения
 Добавлено: 2014-03-26 17:16
DVD Release Group
Аватара пользователя
Стаж: 7 лет 1 месяц
Сообщений: 3548
Спасибок: 247034
Лайков: 1018
Невероятная жизнь Уолтера Митти

The Secret Life of Walter Mitty


Изображение


Год выпуска: 2013
Страна: США
Жанр: Фэнтези, драма, комедия, приключения
Продолжительность: 01:54:34
Перевод: Профессиональный (полное дублирование)
Субтитры: Русские, украинские, английские
Режиссер: Бен Стиллер
В ролях: Бен Стиллер,Кристен Уиг, Джон Дэйли, Кэтрин Хан, Теренс Берни Хайнс, Адам Скотт, Пол Фицджералд, Грэйс Рекс, Алекс Анфанджер, Аманда Нафтон
Описание: Кто сказал, что в сердце маленького человека не могут жить великие мечты? Даже скромному и незаметному служащему хочется иногда совершить пусть безумные, но геройские поступки, поверить в свою силу и мужество. Почему всех спасать должны исключительно супермены?
Изображение Изображение
Качество: BDRip 720p
Формат: MKV
Видео кодек: H.264
Аудио кодек: AC3, DTS
Видео: 1280x534 23.98fps 4740kbps
Аудио:
Audio Rus: AC3 48kHz 6ch 640kbps
Audio Rus: DTS 48kHz 6ch 755kbps
Audio Ukr: AC3 48kHz 6ch 448kbps
Audio Eng: DTS 48kHz 6ch 1510kbps
"MediaInfo"
Format : Matroska
Format version : Version 2
File size : 6.49 GiB
Duration : 1h 54mn
Overall bit rate : 8 103 Kbps
Movie name : Respector
Encoded date : UTC 2014-03-27 16:39:45
Writing application : mkvmerge v5.5.0 ('Healer') built on Apr 24 2012 23:47:03
Writing library : libebml v1.2.3 + libmatroska v1.3.0

Video
ID : 1
Format : AVC
Format/Info : Advanced Video Codec
Format profile : High@L4.1
Format settings, CABAC : Yes
Format settings, ReFrames : 10 frames
Codec ID : V_MPEG4/ISO/AVC
Duration : 1h 54mn
Bit rate : 4 740 Kbps
Width : 1 280 pixels
Height : 534 pixels
Display aspect ratio : 2.40:1
Frame rate mode : Constant
Frame rate : 23.976 fps
Color space : YUV
Chroma subsampling : 4:2:0
Bit depth : 8 bits
Scan type : Progressive
Bits/(Pixel*Frame) : 0.289
Stream size : 3.66 GiB (56%)
Writing library : x264 core 138 r2356 a1d3d17
Encoding settings : cabac=1 / ref=10 / deblock=1:-3:-3 / analyse=0x3:0x113 / me=umh / subme=10 / psy=1 / psy_rd=1.00:0.05 / mixed_ref=1 / me_range=32 / chroma_me=1 / trellis=2 / 8x8dct=1 / cqm=0 / deadzone=21,11 / fast_pskip=0 / chroma_qp_offset=-2 / threads=18 / lookahead_threads=1 / sliced_threads=0 / nr=0 / decimate=1 / interlaced=0 / bluray_compat=0 / constrained_intra=0 / bframes=5 / b_pyramid=2 / b_adapt=2 / b_bias=0 / direct=3 / weightb=1 / open_gop=0 / weightp=2 / keyint=250 / keyint_min=23 / scenecut=40 / intra_refresh=0 / rc=2pass / mbtree=0 / bitrate=4740 / ratetol=1.0 / qcomp=0.70 / qpmin=0 / qpmax=69 / qpstep=4 / cplxblur=20.0 / qblur=0.5 / ip_ratio=1.40 / pb_ratio=1.30 / aq=2:1.00
Language : English
Default : Yes
Forced : No

Audio #1
ID : 2
Format : DTS
Format/Info : Digital Theater Systems
Mode : 16
Format settings, Endianness : Big
Codec ID : A_DTS
Duration : 1h 54mn
Bit rate mode : Constant
Bit rate : 768 Kbps
Channel(s) : 6 channels
Channel positions : Front: L C R, Side: L R, LFE
Sampling rate : 48.0 KHz
Bit depth : 24 bits
Compression mode : Lossy
Stream size : 629 MiB (9%)
Language : Russian
Default : Yes
Forced : Yes

Audio #2
ID : 3
Format : AC-3
Format/Info : Audio Coding 3
Mode extension : CM (complete main)
Format settings, Endianness : Big
Codec ID : A_AC3
Duration : 1h 54mn
Bit rate mode : Constant
Bit rate : 640 Kbps
Channel(s) : 6 channels
Channel positions : Front: L C R, Side: L R, LFE
Sampling rate : 48.0 KHz
Bit depth : 16 bits
Compression mode : Lossy
Stream size : 525 MiB (8%)
Language : Russian
Default : No
Forced : No

Audio #3
ID : 4
Format : AC-3
Format/Info : Audio Coding 3
Mode extension : CM (complete main)
Format settings, Endianness : Big
Codec ID : A_AC3
Duration : 1h 54mn
Bit rate mode : Constant
Bit rate : 448 Kbps
Channel(s) : 6 channels
Channel positions : Front: L C R, Side: L R, LFE
Sampling rate : 48.0 KHz
Bit depth : 16 bits
Compression mode : Lossy
Stream size : 367 MiB (6%)
Language : Ukrainian
Default : No
Forced : No

Audio #4
ID : 5
Format : DTS
Format/Info : Digital Theater Systems
Mode : 16
Format settings, Endianness : Big
Codec ID : A_DTS
Duration : 1h 54mn
Bit rate mode : Constant
Bit rate : 1 509 Kbps
Channel(s) : 6 channels
Channel positions : Front: L C R, Side: L R, LFE
Sampling rate : 48.0 KHz
Bit depth : 24 bits
Compression mode : Lossy
Stream size : 1.21 GiB (19%)
Language : English
Default : No
Forced : No

Text #1
ID : 6
Format : UTF-8
Codec ID : S_TEXT/UTF8
Codec ID/Info : UTF-8 Plain Text
Language : Russian
Default : No
Forced : No

Text #2
ID : 7
Format : UTF-8
Codec ID : S_TEXT/UTF8
Codec ID/Info : UTF-8 Plain Text
Language : Ukrainian
Default : No
Forced : No

Text #3
ID : 8
Format : UTF-8
Codec ID : S_TEXT/UTF8
Codec ID/Info : UTF-8 Plain Text
Language : English
Default : No
Forced : No

Menu
00:00:00.000 : :Chapter 01
00:02:51.004 : :Chapter 03
00:05:39.756 : :Chapter 05
00:08:33.971 : :Chapter 07
00:10:54.570 : :Chapter 09
00:13:52.248 : :Chapter 11
00:17:48.233 : :Chapter 13
00:20:39.655 : :Chapter 15
00:23:33.245 : :Chapter 17
00:26:31.381 : :Chapter 19
00:30:08.264 : :Chapter 21
00:32:19.520 : :Chapter 23
00:35:01.057 : :Chapter 25
00:38:18.838 : :Chapter 27
00:40:31.846 : :Chapter 29
00:44:51.480 : :Chapter 31
00:48:13.890 : :Chapter 33
00:51:29.669 : :Chapter 35
00:54:36.273 : :Chapter 37
00:57:28.403 : :Chapter 39
01:00:02.140 : :Chapter 41
01:03:10.620 : :Chapter 43
01:05:28.382 : :Chapter 45
01:09:27.288 : :Chapter 47
01:11:23.028 : :Chapter 49
01:14:06.650 : :Chapter 51
01:18:31.748 : :Chapter 53
01:22:50.882 : :Chapter 55
01:28:52.535 : :Chapter 57
01:30:24.460 : :Chapter 59
01:33:54.670 : :Chapter 61
01:35:39.483 : :Chapter 63
01:38:24.356 : :Chapter 65
01:39:48.273 : :Chapter 67
01:43:01.675 : :Chapter 69
01:44:28.262 : :Chapter 71
01:54:34.659 : :Chapter 72
Свернуть

"Скриншоты"
Изображение
Изображение
Изображение
Изображение
Изображение
Изображение
Свернуть


Последний раз редактировалось rastor 2014-03-28 07:48, всего редактировалось 3 раз(а).
 teak нравится это.
В сети
Профиль  
 Добавлено: 2014-03-26 19:47 (спустя 2 часа 30 минут)
Аватара пользователя
Стаж: 3 года 6 месяцев
Сообщений: 175
Спасибок: 4257
Лайков: 29
Добрый такой фильм, всем качать!
Не в сети
Профиль  
 Добавлено: 2014-04-08 16:35 (спустя 12 дней)
Стаж: 7 лет 5 месяцев
Сообщений: 17
Отличный фильм!!!
Не в сети
Профиль  
Начать новую темуОтветить на тему  [ Сообщений: 3 ] 
Вы не можете начинать темы
Вы не можете отвечать на сообщения
Вы не можете редактировать свои сообщения
Вы не можете удалять свои сообщения