Правила форума

  • В этом разделе создание новых тем Запрещено.
  • Для создания новых тем пользуйтесь Корневым разделом DVD и HD фильмы.
Начать новую темуОтветить на тему  [ Сообщений: 4 ] 
Торрент файл
Размер: 10.98 GB • Зарегистрирован: 2 года 8 месяцев • Статус: Проверено
Скачан: 559 раз • Желающих скачать: 0 • Поблагодарили: 137 раз
 Раздают: 0  |  0 KB/s  ]   Качают: 0  |  0 KB/s  ] 
 Полного источника не было 1 час 4 минуты 
Сообщения
 Добавлено: 2014-03-28 02:23
Аватара пользователя
Стаж: 9 лет 1 месяц
Сообщений: 7912
Спасибок: 122098
Лайков: 1190
Невероятная жизнь Уолтера Митти / The Secret Life of Walter Mitty

«Stop Dreaming. Start Living»

Изображение


Год выпуска: 2013
Страна: Изображение США
Жанр: приключения, мелодрама, драма, комедия, фэнтези
Продолжительность: 01:54:34
Субтитры: Русские, украинские, английские
Перевод: Профессиональный (полное дублирование) [Лицензия]


Режиссер: Бен Стиллер
Сценарий: Стив Конрад, Джеймс Турбер
Продюсер: Стюарт Корнфелд, Сэмюэл Голдуин мл., Джон Голдвин
Оператор: Стюарт Драйбёрг
Композитор: Теодор Шапиро

В ролях: Кристен Уиг, Бен Стиллер, Шон Пенн, Адам Скотт, Кэтрин Хан, Ширли МакЛейн, Пэттон Освальт, Джои Слотник, Тосико Онидзава, Адриан Мартинез

Описание: Кто сказал, что в сердце маленького человека не могут жить великие мечты? Даже скромному и незаметному служащему хочется иногда совершить пусть безумные, но геройские поступки, поверить в свою силу и мужество. Почему всех спасать должны исключительно супермены?

Изображение Изображение

Раздача группы: Изображение

Качество: BDRip (1080p)
Формат: Matroska
Видео: MPEG-4 AVC, 10.4 Мбит/с, 1920x800, 23.976 кадр/с
Аудио №1: Русский (DTS, 48,0 КГц, 6 ch, 768 Кбит/c)
Аудио №2: Русский (AC3, 48,0 КГц, 6 ch, 640 Кбит/c)
Аудио №3: Английский (DTS, 48,0 КГц, 6 ch, 1510 Кбит/c)
Аудио №4: Украинский (AC3, 48,0 КГц, 6 ch, 448 Кбит/c)

MediaInfo
Общее
Уникальный идентификатор : 207902950871240127546041366199964729206 (0x9C68A6E05BC66D6B82818B213342FF76)
Полное имя : C:\Фильмы\The.Secret.Life.of.Walter.Mitty.2013.BDRip.1080p.mkv
Формат : Matroska
Версия формата : Version 2
Размер файла : 11,0 Гбайт
Продолжительность : 1 ч. 54 м.
Общий поток : 13,7 Мбит/сек
Название фильма : Respector
Дата кодирования : UTC 2014-03-27 20:44:11
Программа кодирования : mkvmerge v5.5.0 ('Healer') built on Apr 24 2012 23:47:03
Библиотека кодирования : libebml v1.2.3 + libmatroska v1.3.0

Видео
Идентификатор : 1
Формат : AVC
Формат/Информация : Advanced Video Codec
Профиль формата : High@L4.1
Параметр CABAC формата : Да
Параметр ReFrames формата : 4 кадра
Идентификатор кодека : V_MPEG4/ISO/AVC
Продолжительность : 1 ч. 54 м.
Битрейт : 10,4 Мбит/сек
Ширина : 1920 пикселей
Высота : 800 пикселей
Соотношение сторон : 2,40:1
Режим частоты кадров : Постоянный
Частота кадров : 23,976 кадра/сек
Цветовое пространство : YUV
Субдискретизация насыщенности : 4:2:0
Битовая глубина : 8 бит
Тип развёртки : Прогрессивная
Бит/(Пиксели*Кадры) : 0.281
Размер потока : 8,07 Гбайт (73%)
Библиотека кодирования : x264 core 138 r2356 a1d3d17
Настройки программы : cabac=1 / ref=4 / deblock=1:-3:-3 / analyse=0x3:0x113 / me=umh / subme=10 / psy=1 / psy_rd=1.00:0.05 / mixed_ref=1 / me_range=32 / chroma_me=1 / trellis=2 / 8x8dct=1 / cqm=0 / deadzone=21,11 / fast_pskip=0 / chroma_qp_offset=-2 / threads=18 / lookahead_threads=1 / sliced_threads=0 / nr=0 / decimate=1 / interlaced=0 / bluray_compat=0 / constrained_intra=0 / bframes=5 / b_pyramid=2 / b_adapt=2 / b_bias=0 / direct=3 / weightb=1 / open_gop=0 / weightp=2 / keyint=250 / keyint_min=23 / scenecut=40 / intra_refresh=0 / rc=2pass / mbtree=0 / bitrate=10361 / ratetol=1.0 / qcomp=0.70 / qpmin=0 / qpmax=69 / qpstep=4 / cplxblur=20.0 / qblur=0.5 / ip_ratio=1.40 / pb_ratio=1.30 / aq=2:0.90
Язык : English
Default : Да
Forced : Нет

Аудио #1
Идентификатор : 2
Формат : DTS
Формат/Информация : Digital Theater Systems
Режим : 16
Параметр Endianness формата : Big
Идентификатор кодека : A_DTS
Продолжительность : 1 ч. 54 м.
Вид битрейта : Постоянный
Битрейт : 768 Кбит/сек
Каналы : 6 каналов
Расположение каналов : Front: L C R, Side: L R, LFE
Частота : 48,0 КГц
Битовая глубина : 24 бит
Метод сжатия : С потерями
Размер потока : 629 Мбайт (6%)
Язык : Russian
Default : Да
Forced : Да

Аудио #2
Идентификатор : 3
Формат : AC-3
Формат/Информация : Audio Coding 3
Расширение режима : CM (complete main)
Параметр Endianness формата : Big
Идентификатор кодека : A_AC3
Продолжительность : 1 ч. 54 м.
Вид битрейта : Постоянный
Битрейт : 640 Кбит/сек
Каналы : 6 каналов
Расположение каналов : Front: L C R, Side: L R, LFE
Частота : 48,0 КГц
Битовая глубина : 16 бит
Метод сжатия : С потерями
Размер потока : 525 Мбайт (5%)
Язык : Russian
Default : Нет
Forced : Нет

Аудио #3
Идентификатор : 4
Формат : DTS
Формат/Информация : Digital Theater Systems
Режим : 16
Параметр Endianness формата : Big
Идентификатор кодека : A_DTS
Продолжительность : 1 ч. 54 м.
Вид битрейта : Постоянный
Битрейт : 1509 Кбит/сек
Каналы : 6 каналов
Расположение каналов : Front: L C R, Side: L R, LFE
Частота : 48,0 КГц
Битовая глубина : 24 бит
Метод сжатия : С потерями
Размер потока : 1,21 Гбайт (11%)
Язык : English
Default : Нет
Forced : Нет

Аудио #4
Идентификатор : 5
Формат : AC-3
Формат/Информация : Audio Coding 3
Расширение режима : CM (complete main)
Параметр Endianness формата : Big
Идентификатор кодека : A_AC3
Продолжительность : 1 ч. 54 м.
Вид битрейта : Постоянный
Битрейт : 448 Кбит/сек
Каналы : 6 каналов
Расположение каналов : Front: L C R, Side: L R, LFE
Частота : 48,0 КГц
Битовая глубина : 16 бит
Метод сжатия : С потерями
Размер потока : 367 Мбайт (3%)
Язык : Ukrainian
Default : Нет
Forced : Нет

Текст #1
Идентификатор : 6
Формат : UTF-8
Идентификатор кодека : S_TEXT/UTF8
Идентификатор кодека/Информация : UTF-8 Plain Text
Язык : Russian
Default : Нет
Forced : Нет

Текст #2
Идентификатор : 7
Формат : UTF-8
Идентификатор кодека : S_TEXT/UTF8
Идентификатор кодека/Информация : UTF-8 Plain Text
Язык : Ukrainian
Default : Нет
Forced : Нет

Текст #3
Идентификатор : 8
Формат : UTF-8
Идентификатор кодека : S_TEXT/UTF8
Идентификатор кодека/Информация : UTF-8 Plain Text
Язык : English
Default : Нет
Forced : Нет

Меню
00:00:00.000 : :Chapter 01
00:02:51.004 : :Chapter 03
00:05:39.756 : :Chapter 05
00:08:33.971 : :Chapter 07
00:10:54.570 : :Chapter 09
00:13:52.248 : :Chapter 11
00:17:48.233 : :Chapter 13
00:20:39.655 : :Chapter 15
00:23:33.245 : :Chapter 17
00:26:31.381 : :Chapter 19
00:30:08.264 : :Chapter 21
00:32:19.520 : :Chapter 23
00:35:01.057 : :Chapter 25
00:38:18.838 : :Chapter 27
00:40:31.846 : :Chapter 29
00:44:51.480 : :Chapter 31
00:48:13.890 : :Chapter 33
00:51:29.669 : :Chapter 35
00:54:36.273 : :Chapter 37
00:57:28.403 : :Chapter 39
01:00:02.140 : :Chapter 41
01:03:10.620 : :Chapter 43
01:05:28.382 : :Chapter 45
01:09:27.288 : :Chapter 47
01:11:23.028 : :Chapter 49
01:14:06.650 : :Chapter 51
01:18:31.748 : :Chapter 53
01:22:50.882 : :Chapter 55
01:28:52.535 : :Chapter 57
01:30:24.460 : :Chapter 59
01:33:54.670 : :Chapter 61
01:35:39.483 : :Chapter 63
01:38:24.356 : :Chapter 65
01:39:48.273 : :Chapter 67
01:43:01.675 : :Chapter 69
01:44:28.262 : :Chapter 71
01:54:34.659 : :Chapter 72
Свернуть
Знаете ли вы, что...
Несмотря на отсутствие окончательного бюджета, студия Paramount планировала начать съемки 12 декабря 2005 года, потому что контракт на права на экранизацию истекал неделей позже, и компания бы потеряла свои права на ремейк, если бы не начала съемки до 20 декабря. В октябре 2005-го Оуэн Уилсон, рассматривавшийся на главную роль, покинул проект из-за творческих разногласий. Сообщалось также, что в октябре, после кинопроб с Уилсоном, на главную женскую роль рассматривалась Скарлетт Йоханссон, но контракт с актрисой так и не был подписан. В ноябре 2005-го руководители студии Paramount Брэд Грэй и Гэйл Берман решили отказаться от проекта. Голдуин обратился к студии Twentieth Century Fox, и в мае 2007 года было объявлено, что главную роль исполнит Майк Майерс. Для того чтобы написать новый сценарий специально под Майерса, был нанят Джей Коген.

В мае 1999 года студия New Line наняла режиссера Чака Рассела вместо Рона Ховарда, чтобы тот переписал сценарий. Съемки запланировали на начало 2000-го, но они были перенесены. Примерно в это же время над новой версией сценария работал Питер Толан. В мае 2001-го Голдуин подал иск против студии New Line за нарушение положений контракта. Голдуин утверждал, что студия продлевала их сделку 1995 года вплоть до мая 2001-го, но затем объявила о желании передать права на ремейк другой компании и вынудить Голдуина отказаться от его творческого вклада в проект. В ноябре 2002-го Голдуин выиграл судебное разбирательство. Студия New Line вернула ему права на экранизацию, после чего Голдуин решил сотрудничать со студией Paramount Pictures. В мае 2003-го глава студии DreamWorks Стивен Спилберг согласился занять место режиссера проекта и вместе с этим привлечь студию DreamWorks к финансированию фильма совместно со студией Paramount (которая в 2006-м купила DreamWorks).

Актеры Джим Керри, Оуэн Уилсон, Уилл Феррелл, Майк Майерс и Саша Барон Коэн рассматривались на роль Митти.

Возглавить проект могли Стивен Спилберг, Рон Ховард и Марк Уотерс.

В первом трейлере фильма на заднем плане играет песня «Dirty Paws» исландской группы Of Monsters and Men.

Продюсер Сэмюэл Голдуин-мл., чей отец Сэмюэл Голдуин является продюсером фильма «Тайная жизнь Уолтера Митти» (1947), задумал сделать ремейк этого фильма еще в 1994 году с Джимом Керри в главной роли. Студия Walt Disney Pictures была сильно заинтересована в том, чтобы приобрести права на ремейк, но Голдуин выбрал студию New Line Cinema, у которой сложились хорошие отношения с Керри после фильмов «Тупой и еще тупее» (1994) и «Маска» (1994). Студия купила права в 1995 году с пониманием того, что компания The Samuel Goldwyn Company будет участвовать в принятии креативных решений. Первый вариант сценария в 1997-м написали Бабалу Мэндел и Лауэлл Ганц. В то же время Рон Ховард вступил в переговоры по поводу должности режиссера фильма, а продюсерские обязанности хотел взять на себя Брайан Грейзер со студией Imagine Entertainment. Ховард, Грейзер и студия Imagine Entertainment в итоге покинули проект, чтобы заняться фильмом «Эд из телевизора» (1999), а «Невероятная жизнь Уолтера Митти» (2013) еще долгое время находилась в стадии разработки из-за сложностей, связанных с использованием современной сюжетной линии.

В апреле 2010-го на главную роль был принят Саша Барон Коэн. В конце того же месяца к проекту присоединился сценарист Стив Конрад, а в июне 2010-го режиссером фильма был объявлен Гор Вербински. В апреле 2011-го было объявлено, что главную роль получит Бен Стиллер, а в июле 2011-го стало известно, что он также станет и режиссером этого фильма в связи с занятостью Вербински работой над фильмом «Одинокий рейнджер» (2013).

Один из героев фильма ездит на автомобиле ВАЗ-2121 «Нива».

Над диваном Уолтера Митти висит фотография, сделанная в Братске (Россия, Иркутская Обл.) в 1967 Эллиоттом Эрвиттом.

Свернуть
Скриншоты
Изображение
Изображение
Изображение
Изображение
Свернуть
 Tishka нравится это.
Не в сети
Профиль  
 Добавлено: 2014-03-28 16:46 (спустя 14 часов)
Аватара пользователя
Стаж: 3 года 6 месяцев
Сообщений: 175
Спасибок: 4255
Лайков: 29
Спасибо, Blu-Ray Remux давно пора!
Не в сети
Профиль  
 Добавлено: 2014-03-28 23:27 (спустя 6 часов)
Аватара пользователя
Стаж: 8 лет 9 месяцев
Сообщений: 1170
Спасибок: 1294
Лайков: 7
наконец-то вышел!
Не в сети
Профиль  
 Добавлено: 2014-04-09 19:42 (спустя 11 дней)
Console V.I.P.
Аватара пользователя
Стаж: 9 лет
Сообщений: 1453
Спасибок: 690
Лайков: 12
Очень красивый фильм!
_________________
МАСТЕР ПО ИГРОВЫМ КОНСОЛЯМ
ПРОДАЖА И МОДЕРНИЗАЦИЯ ИГРОВЫХ КОНСОЛЕЙ

УСЛУГИ И КОНТАКТЫ (нажать чтобы посмотреть)
icq: 378004868 тел: 89049149337
Не в сети
Профиль  
Начать новую темуОтветить на тему  [ Сообщений: 4 ] 
Вы не можете начинать темы
Вы не можете отвечать на сообщения
Вы не можете редактировать свои сообщения
Вы не можете удалять свои сообщения