Правила форума

  • В этом разделе создание новых тем Запрещено.
  • Для создания новых тем пользуйтесь Корневым разделом DVD и HD фильмы.
Начать новую темуОтветить на тему  [ Сообщений: 3 ] 
Торрент файл
Размер: 11.42 GB • Зарегистрирован: 3 года 5 месяцев • Статус: Проверено
Скачан: 210 раз • Желающих скачать: 0 • Поблагодарили: 67 раз
 Раздают: 0  |  0 KB/s  ]   Качают: 0  |  0 KB/s  ] 
 Полного источника не было 7 месяцев 
Сообщения
 Добавлено: 2013-06-26 19:20
Аватара пользователя
Стаж: 9 лет 1 месяц
Сообщений: 7919
Спасибок: 122107
Лайков: 1191
Невероятный Бёрт Уандерстоун / The Incredible Burt Wonderstone

«Abracatastic!»

Изображение


Год выпуска: 2013
Страна: Изображение США
Жанр: комедия
Продолжительность: 01:40:18
Субтитры: Русские, английские
Перевод: Профессиональный (многоголосый, закадровый) [Лицензия] + Профессиональный (многоголосый, закадровый) [BaiBako]


Режиссер: Дон Скардино
Сценарий: Джонатан М. Голдштейн, Джон Фрэнсис Дейли, Чад Калтген
Продюсер: Крис Бендер, Стив Карелл, Тайлер Митчелл
Оператор: Мэттью Кларк
Композитор: Лайл Уоркмэн

В ролях: Стив Карелл, Стив Бушеми, Оливия Уайлд, Джим Керри, Джеймс Гандольфини, Алан Аркин, Джей Мор, МихаэльХербиг, Мэйсон Кук, Люк Ванек

Описание: Фильм рассказывает историю двух фокусников-конкурентов в Лас-Вегасе. Берт Уандерстоун однажды во время исполнения номера лишается напарника, и все оставшееся время пытается вернуть себе мотивацию и вернуться к любимому занятию.

Изображение Изображение

Релиз группы: Изображение Раздача группы: Изображение

Качество: BDRip (1080p)
Формат: Matroska
Видео: MPEG-4 AVC, 12.5 Мбит/с, 1920x800
Аудио №1: Русский (AC3, 48,0 КГц, 6 ch, 448 Кбит/c) Лицензия
Аудио №2: Русский (DTS, 48,0 КГц, 6 ch, 1510 Кбит/c) BaiBako
Аудио №3: Английский (DTS, 48,0 КГц, 6 ch, 1510 Кбит/c)

MediaInfo
Общее
Уникальный идентификатор : 226881528340840461981813724640000988992 (0xAAAFCAFD32B785A38067234C7091D740)
Полное имя : C:\Фильмы\Neverojatnyj.Bjort.Uanderstoun.2013.P.BDRip.1080p.R.G.Daredevil.mkv
Формат : Matroska
Версия формата : Version 2
Размер файла : 11,4 Гбайт
Продолжительность : 1 ч. 40 м.
Общий поток : 16,3 Мбит/сек
Название фильма : IRONCLUB
Дата кодирования : UTC 2013-06-26 11:17:17
Программа кодирования : mkvmerge v5.2.0 ('I can't explain') built on Dec 18 2011 18:12:03
Библиотека кодирования : libebml v1.2.3 + libmatroska v1.3.0

Видео
Идентификатор : 1
Формат : AVC
Формат/Информация : Advanced Video Codec
Профиль формата : High@L4.1
Параметр CABAC формата : Да
Параметр ReFrames формата : 5 кадров
Идентификатор кодека : V_MPEG4/ISO/AVC
Продолжительность : 1 ч. 40 м.
Битрейт : 12,5 Мбит/сек
Ширина : 1920 пикселей
Высота : 800 пикселей
Соотношение сторон : 2,40:1
Режим частоты кадров : Постоянный
Частота кадров : 23,976 кадра/сек
Цветовое пространство : YUV
Субдискретизация насыщенности : 4:2:0
Битовая глубина : 8 бит
Тип развёртки : Прогрессивная
Бит/(Пиксели*Кадры) : 0.340
Размер потока : 8,76 Гбайт (77%)
Заголовок : The Incredible Burt Wonderstone 2013 1080p BluRay DTS x264-DON
Библиотека кодирования : x264 core 116 r2057 0ba8a9c
Настройки программы : cabac=1 / ref=5 / deblock=1:-3:-3 / analyse=0x3:0x133 / me=umh / subme=10 / psy=1 / psy_rd=1.00:0.00 / mixed_ref=1 / me_range=32 / chroma_me=1 / trellis=2 / 8x8dct=1 / cqm=0 / deadzone=21,11 / fast_pskip=0 / chroma_qp_offset=-2 / threads=18 / sliced_threads=0 / nr=0 / decimate=0 / interlaced=0 / bluray_compat=0 / constrained_intra=0 / bframes=7 / b_pyramid=2 / b_adapt=2 / b_bias=0 / direct=3 / weightb=1 / open_gop=0 / weightp=2 / keyint=250 / keyint_min=23 / scenecut=40 / intra_refresh=0 / rc_lookahead=40 / rc=crf / mbtree=0 / crf=17.8 / qcomp=0.65 / qpmin=0 / qpmax=40 / qpstep=4 / vbv_maxrate=50000 / vbv_bufsize=50000 / crf_max=0.0 / nal_hrd=none / ip_ratio=1.25 / pb_ratio=1.25 / aq=1:0.80
Язык : English
Default : Да
Forced : Да

Аудио #1
Идентификатор : 2
Формат : AC-3
Формат/Информация : Audio Coding 3
Расширение режима : CM (complete main)
Параметр Endianness формата : Big
Идентификатор кодека : A_AC3
Продолжительность : 1 ч. 40 м.
Вид битрейта : Постоянный
Битрейт : 448 Кбит/сек
Каналы : 6 каналов
Расположение каналов : Front: L C R, Side: L R, LFE
Частота : 48,0 КГц
Битовая глубина : 16 бит
Метод сжатия : С потерями
Размер потока : 321 Мбайт (3%)
Заголовок : DD 5.1 @ 448 kbps - MVO, BD EUR
Язык : Russian
Default : Да
Forced : Да

Аудио #2
Идентификатор : 3
Формат : DTS
Формат/Информация : Digital Theater Systems
Режим : 16
Параметр Endianness формата : Big
Идентификатор кодека : A_DTS
Продолжительность : 1 ч. 40 м.
Вид битрейта : Постоянный
Битрейт : 1509 Кбит/сек
Каналы : 6 каналов
Расположение каналов : Front: L C R, Side: L R, LFE
Частота : 48,0 КГц
Битовая глубина : 24 бит
Метод сжатия : С потерями
Размер потока : 1,06 Гбайт (9%)
Заголовок : DTS 5.1 @ 1536 kbps - MVO, BaibaKo
Язык : Russian
Default : Нет
Forced : Нет

Аудио #3
Идентификатор : 4
Формат : DTS
Формат/Информация : Digital Theater Systems
Режим : 16
Параметр Endianness формата : Big
Идентификатор кодека : A_DTS
Продолжительность : 1 ч. 40 м.
Вид битрейта : Постоянный
Битрейт : 1509 Кбит/сек
Каналы : 6 каналов
Расположение каналов : Front: L C R, Side: L R, LFE
Частота : 48,0 КГц
Битовая глубина : 24 бит
Метод сжатия : С потерями
Размер потока : 1,06 Гбайт (9%)
Заголовок : DTS 5.1 @ 1536 kbps
Язык : English
Default : Нет
Forced : Нет

Текст #1
Идентификатор : 5
Формат : UTF-8
Идентификатор кодека : S_TEXT/UTF8
Идентификатор кодека/Информация : UTF-8 Plain Text
Заголовок : Forced
Язык : Russian
Default : Да
Forced : Нет

Текст #2
Идентификатор : 6
Формат : UTF-8
Идентификатор кодека : S_TEXT/UTF8
Идентификатор кодека/Информация : UTF-8 Plain Text
Заголовок : BD EUR
Язык : Russian
Default : Нет
Forced : Нет

Текст #3
Идентификатор : 7
Формат : UTF-8
Идентификатор кодека : S_TEXT/UTF8
Идентификатор кодека/Информация : UTF-8 Plain Text
Язык : English
Default : Нет
Forced : Нет

Меню
00:00:00.000 : en:00:00:00.000
00:08:08.405 : en:00:08:08.405
00:19:56.445 : en:00:19:56.445
00:30:13.145 : en:00:30:13.145
00:39:53.308 : en:00:39:53.308
00:49:46.150 : en:00:49:46.150
01:00:48.228 : en:01:00:48.228
01:10:29.142 : en:01:10:29.142
01:19:53.163 : en:01:19:53.163
01:30:04.399 : en:01:30:04.399
Свернуть
Знаете ли вы, что...
Стив Грей — это очевидная пародия на известного иллюзиониста Крисса Энджела, который также работал консультантом в этом проекте.

Дэвид Копперфильд поделился некой информацией о фокусах специально для фильма. Эта информация была настолько конфиденциальной, что он даже подписал специальные соглашения о том, что она не будет разглашаться.

Саша Барон Коэн и Мэттью Бродерик рассматривались на роль Стива Грея.

На роль Джейн рассматривались Мишель Монахэн, Вайнона Райдер, Джуди Грир, Сара Сильверман и Джессика Бил.

Режиссер Дон Скардино настаивал на том, чтобы самые невероятные фокусы в фильме были сняты вживую. И хотя сам Дэвид Копперфильд работал в качестве консультанта во время съемок этих сцен, некоторые из них все же были сделаны при помощи компьютерной графики.

Свернуть
Скриншоты
Изображение
Изображение
Изображение
Изображение
Свернуть
Не в сети
Профиль  
 Добавлено: 2013-06-26 20:55 (спустя 1 час 34 минуты)
Аватара пользователя
Стаж: 9 лет
Сообщений: 167
Спасибок: 38
1920x800 это не блюрей
Не в сети
Профиль  
 Добавлено: 2013-06-29 22:40 (спустя 3 дня)
Стаж: 9 лет 1 месяц
Сообщений: 47
Спасибок: 16
Лайков: 1
УГ
Не в сети
Профиль  
Начать новую темуОтветить на тему  [ Сообщений: 3 ] 
Вы не можете начинать темы
Вы не можете отвечать на сообщения
Вы не можете редактировать свои сообщения
Вы не можете удалять свои сообщения