Правила форума

  • В этом разделе создание новых тем Запрещено.
  • Для создания новых тем пользуйтесь Корневым разделом DVD и HD фильмы.
Начать новую темуОтветить на тему  [ Сообщений: 2 ] 
Торрент файл
Размер: 7.1 GB • Зарегистрирован: 3 года 5 месяцев • Статус: Проверено
Скачан: 55 раз • Желающих скачать: 0 • Поблагодарили: 14 раз
 Раздают: 0  |  0 KB/s  ]   Качают: 0  |  0 KB/s  ] 
 Полного источника не было 1 год 5 месяцев 
Сообщения
 Добавлено: 2013-06-27 07:08
Top-releaser
Аватара пользователя
Стаж: 6 лет 11 месяцев
Возраст: 23
Сообщений: 2084
Спасибок: 11188
Лайков: 13
Невероятный Бёрт Уандерстоун / The Incredible Burt Wonderstone

«Abracatastic!»

Изображение


Год выпуска: 2013
Страна: Изображение США
Жанр: комедия
Продолжительность: 01:40:18
Субтитры: Русские, английские
Перевод: Профессиональный (многоголосый, закадровый) [Лицензия] + Профессиональный (многоголосый, закадровый) [BaiBako]


Режиссер: Дон Скардино
Сценарий: Джонатан М. Голдштейн, Джон Фрэнсис Дейли, Чад Калтген
Продюсер: Крис Бендер, Стив Карелл, Тайлер Митчелл
Оператор: Мэттью Кларк
Композитор: Лайл Уоркмэн

В ролях: Стив Карелл, Стив Бушеми, Оливия Уайлд, Джим Керри, Джеймс Гандольфини, Алан Аркин, Джей Мор, МихаэльХербиг, Мэйсон Кук, Люк Ванек

Описание: Фильм рассказывает историю двух фокусников-конкурентов в Лас-Вегасе. Берт Уандерстоун однажды во время исполнения номера лишается напарника, и все оставшееся время пытается вернуть себе мотивацию и вернуться к любимому занятию.

Изображение Изображение

Качество: BDRip (1080p)
Видео: MPEG-4 AVC, 6660 Кбит/с, 1280x534
Аудио1: Русский (AC3, 6 ch, 448 Кбит/с),
Аудио2: русский (DTS, 6 ch, 1510 Кбит/с)
Аудио3: английский (DTS, 6 ch, 1510 Кбит/с)

MediaInfo
255047723195265640749330114337316841466 (0xBFE0679CB5C2E0A79C30AC44139CA7FA)
Complete name : The.Incredible.Burt.Wonderstone.2013.720p.BluRay.2xRus.Eng.IRONCLUB.mkv
Format : Matroska
Format version : Version 2
File size : 7.10 GiB
Duration : 1h 40mn
Overall bit rate : 10.1 Mbps
Movie name : IRONCLUB
Encoded date : UTC 2013-06-26 11:02:56
Writing application : mkvmerge v5.2.0 ('I can't explain') built on Dec 18 2011 18:12:03
Writing library : libebml v1.2.3 + libmatroska v1.3.0

Video
ID : 1
Format : AVC
Format/Info : Advanced Video Codec
Format profile : High@L4.1
Format settings, CABAC : Yes
Format settings, ReFrames : 12 frames
Codec ID : V_MPEG4/ISO/AVC
Duration : 1h 40mn
Bit rate : 6 660 Kbps
Width : 1 280 pixels
Height : 534 pixels
Display aspect ratio : 2.40:1
Frame rate : 23.976 fps
Color space : YUV
Chroma subsampling : 4:2:0
Bit depth : 8 bits
Scan type : Progressive
Bits/(Pixel*Frame) : 0.406
Stream size : 4.53 GiB (64%)
Title : The Incredible Burt Wonderstone 2013 720p BluRay DTS x264-DON
Writing library : x264 core 133 r2334 a3ac64b
Encoding settings : cabac=1 / ref=12 / deblock=1:-3:-3 / analyse=0x3:0x133 / me=tesa / subme=10 / psy=1 / psy_rd=1.10:0.00 / mixed_ref=1 / me_range=32 / chroma_me=1 / trellis=2 / 8x8dct=1 / cqm=0 / deadzone=21,11 / fast_pskip=0 / chroma_qp_offset=-2 / threads=3 / lookahead_threads=1 / sliced_threads=0 / nr=0 / decimate=0 / interlaced=0 / bluray_compat=0 / constrained_intra=0 / bframes=8 / b_pyramid=2 / b_adapt=2 / b_bias=0 / direct=3 / weightb=1 / open_gop=0 / weightp=2 / keyint=250 / keyint_min=23 / scenecut=40 / intra_refresh=0 / rc_lookahead=240 / rc=2pass / mbtree=0 / bitrate=6660 / ratetol=1.0 / qcomp=0.75 / qpmin=0 / qpmax=69 / qpstep=4 / cplxblur=20.0 / qblur=0.5 / vbv_maxrate=50000 / vbv_bufsize=62500 / nal_hrd=none / ip_ratio=1.20 / pb_ratio=1.10 / aq=1:0.60
Language : English
Default : Yes
Forced : Yes

Audio #1
ID : 2
Format : AC-3
Format/Info : Audio Coding 3
Mode extension : CM (complete main)
Format settings, Endianness : Big
Codec ID : A_AC3
Duration : 1h 40mn
Bit rate mode : Constant
Bit rate : 448 Kbps
Channel(s) : 6 channels
Channel positions : Front: L C R, Side: L R, LFE
Sampling rate : 48.0 KHz
Bit depth : 16 bits
Compression mode : Lossy
Stream size : 321 MiB (4%)
Title : DD 5.1 @ 448 kbps - MVO, BD EUR
Language : Russian
Default : Yes
Forced : Yes

Audio #2
ID : 3
Format : DTS
Format/Info : Digital Theater Systems
Codec ID : A_DTS
Duration : 1h 40mn
Bit rate mode : Constant
Bit rate : 1 510 Kbps
Channel(s) : 6 channels
Channel positions : Front: L C R, Side: L R, LFE
Sampling rate : 48.0 KHz
Bit depth : 24 bits
Compression mode : Lossy
Stream size : 1.06 GiB (15%)
Title : DTS 5.1 @ 1536 kbps - MVO, BaibaKo
Language : Russian
Default : No
Forced : No

Audio #3
ID : 4
Format : DTS
Format/Info : Digital Theater Systems
Codec ID : A_DTS
Duration : 1h 40mn
Bit rate mode : Constant
Bit rate : 1 510 Kbps
Channel(s) : 6 channels
Channel positions : Front: L C R, Side: L R, LFE
Sampling rate : 48.0 KHz
Bit depth : 24 bits
Compression mode : Lossy
Stream size : 1.06 GiB (15%)
Title : DTS 5.1 @ 1536 kbps
Language : English
Default : No
Forced : No

Text #1
ID : 5
Format : UTF-8
Codec ID : S_TEXT/UTF8
Codec ID/Info : UTF-8 Plain Text
Title : Forced
Language : Russian
Default : Yes
Forced : No

Text #2
ID : 6
Format : UTF-8
Codec ID : S_TEXT/UTF8
Codec ID/Info : UTF-8 Plain Text
Title : BD EUR
Language : Russian
Default : No
Forced : No

Text #3
ID : 7
Format : UTF-8
Codec ID : S_TEXT/UTF8
Codec ID/Info : UTF-8 Plain Text
Language : English
Default : No
Forced : No

Menu
00:00:00.000 : en:00:00:00.000
00:08:08.405 : en:00:08:08.405
00:19:56.445 : en:00:19:56.445
00:30:13.145 : en:00:30:13.145
00:39:53.308 : en:00:39:53.308
00:49:46.150 : en:00:49:46.150
01:00:48.228 : en:01:00:48.228
01:10:29.142 : en:01:10:29.142
01:19:53.163 : en:01:19:53.163
01:30:04.399 : en:01:30:04.399
Свернуть
Знаете ли вы, что...
Стив Грей — это очевидная пародия на известного иллюзиониста Крисса Энджела, который также работал консультантом в этом проекте.

Дэвид Копперфильд поделился некой информацией о фокусах специально для фильма. Эта информация была настолько конфиденциальной, что он даже подписал специальные соглашения о том, что она не будет разглашаться.

Саша Барон Коэн и Мэттью Бродерик рассматривались на роль Стива Грея.

На роль Джейн рассматривались Мишель Монахэн, Вайнона Райдер, Джуди Грир, Сара Сильверман и Джессика Бил.

Режиссер Дон Скардино настаивал на том, чтобы самые невероятные фокусы в фильме были сняты вживую. И хотя сам Дэвид Копперфильд работал в качестве консультанта во время съемок этих сцен, некоторые из них все же были сделаны при помощи компьютерной графики.

Свернуть
Скриншоты
Изображение

Изображение

Изображение
Свернуть
_________________
Изображение
РАЗДАЧИ БОЛЬШЕ НЕ ПОДДЕРЖИВАЮ, простите.
Не в сети
Профиль  
 Добавлено: 2013-07-14 22:44 (спустя 17 дней)
Аватара пользователя
Стаж: 5 лет 6 месяцев
Возраст: 35
Сообщений: 51
Спасибок: 2
Лайков: 4
глянцевая хрень....
Не в сети
Профиль  
Начать новую темуОтветить на тему  [ Сообщений: 2 ] 
Вы не можете начинать темы
Вы не можете отвечать на сообщения
Вы не можете редактировать свои сообщения
Вы не можете удалять свои сообщения