Правила форума

  • В этом разделе создание новых тем Запрещено.
  • Для создания новых тем пользуйтесь Корневым разделом DVD и HD фильмы.
Начать новую темуОтветить на тему  [ Сообщений: 4 ] 
Торрент файл
Размер: 4.35 GB • Зарегистрирован: 5 лет • Статус: Проверено
Скачан: 40 раз • Желающих скачать: 0 • Поблагодарили: 21 раз
 Раздают: 0  |  0 KB/s  ]   Качают: 0  |  0 KB/s  ] 
 Полного источника не было 6 часов 
Сообщения
 Добавлено: 2011-11-11 16:55
Top-seeder
Аватара пользователя
Стаж: 9 лет
Сообщений: 1399
Спасибок: 28651
Лайков: 8
Невезучие / La Chevre

Изображение

Год выпуска: 1981
Страна: Франция-Мексика
Жанр: Комедия
Продолжительность: 01:29:47
Перевод:
Профессиональный (полное дублирование)
Профессиональный (многоголосый закадровый)
Русские субтитры: есть

Режисер: Франсис Вебер / Francis Veber

В ролях: Пьер Ришар, Жерар Депардье, Педро Армендарис-Младший, Коринн Шарби, Маритца Оливарес, Андре Валарди, Хорхе Люк, Серджо Кальдерон, Мишель Робен

Описание:
Существует тип людей, страдающих хроническим невезением. Они опаздывают на поезда, проливают красное вино на белую одежду, на них падают кирпичи. Единственная дочь миллионера Мари, как раз из таких. Не повезло ей в очередной раз — пропала где — то в Латинской Америке. Папаша поручает поиски первоклассному сыщику, который, в свою очередь, решает пойти нетрадиционным путем. Он находит такого же невезучего человека. Расчет прост — один невезучий должен «вывести» на другого.

От себя:
Фильм классика, такого, как говорится, сейчас не делают, замечательные пейзажи, превосходная музыка, захватывающий и интересный сюжет. С детства пересматриваю и не надоедает.

Качество: HDTVRip-AVC 720p
Формат: MKV
Видео кодек: H.264
Аудио кодек: AC3
Видео: MPEG4 Video (H264) 1200x720 50.00fps, 6099 kbps (hqf)
Аудио:
Dolby AC3 48000Hz stereo 192 kbps (Дубляж)
Dolby AC3 48000Hz stereo 192 kbps (Многоголосый)
Dolby AC3 48000Hz stereo 448 kbps (Французский)

Mi
Общее
Уникальный идентификатор : 246214024138016490155821692770198267396 (0xB93B189F5A9E6C0DA111AA1C29F8A604)
Полное имя : D:\Закачки\La Chevre 720p.mkv
Формат : Matroska
Размер файла : 4,35 Гбайт
Продолжительность : 1 ч. 29 м.
Общий поток : 6938 Кбит/сек
Дата кодирования : UTC 2009-09-13 08:34:45
Программа кодирования : mkvmerge v2.4.1 ('Use Me') built on Dec 11 2008 15:41:36
Библиотека кодирования : libebml v0.7.7 + libmatroska v0.8.1

Видео
Идентификатор : 1
Формат : AVC
Формат/Информация : Advanced Video Codec
Профиль формата : High@L4.1
Параметр CABAC формата : Да
Параметр ReFrames формата : 12 кадров
Идентификатор кодека : V_MPEG4/ISO/AVC
Продолжительность : 1 ч. 29 м.
Битрейт : 6099 Кбит/сек
Ширина : 1200 пикс.
Высота : 720 пикс.
Соотношение сторон : 1,667
Частота кадров : 50,000 кадр/сек
Цветовое пространство : YUV
Подвыборка цветности : 4:2:0
Битовая глубина : 8 бит
Тип развёртки : Прогрессивная
Бит/(Пиксели*Кадры) : 0.141
Размер потока : 3,74 Гбайт (86%)
Библиотека кодирования : x264 core 68 r1183M f21daff
Настройки программы : cabac=1 / ref=12 / deblock=1:-3:-3 / analyse=0x3:0x113 / me=umh / subme=9 / psy_rd=1.0:0.0 / mixed_ref=1 / me_range=32 / chroma_me=1 / trellis=2 / 8x8dct=1 / cqm=0 / deadzone=21,11 / chroma_qp_offset=-2 / threads=6 / nr=0 / decimate=1 / mbaff=0 / bframes=3 / b_pyramid=1 / b_adapt=2 / b_bias=0 / direct=3 / wpredb=1 / keyint=250 / keyint_min=25 / scenecut=40 / rc=2pass / bitrate=6099 / ratetol=1.0 / qcomp=0.60 / qpmin=10 / qpmax=51 / qpstep=4 / cplxblur=20.0 / qblur=0.5 / ip_ratio=1.40 / pb_ratio=1.30 / aq=1:0.80
Язык : English

Аудио #1
Идентификатор : 2
Формат : AC-3
Формат/Информация : Audio Coding 3
Расширение режима : CM (complete main)
Идентификатор кодека : A_AC3
Продолжительность : 1 ч. 29 м.
Вид битрейта : Постоянный
Битрейт : 192 Кбит/сек
Каналы : 2 канала
Расположение каналов : Front: L R
Частота : 48,0 КГц
Битовая глубина : 16 бит
Метод сжатия : С потерями
Размер потока : 123 Мбайт (3%)
Заголовок : Дубляж
Язык : Russian

Аудио #2
Идентификатор : 3
Формат : AC-3
Формат/Информация : Audio Coding 3
Расширение режима : CM (complete main)
Идентификатор кодека : A_AC3
Продолжительность : 1 ч. 29 м.
Вид битрейта : Постоянный
Битрейт : 192 Кбит/сек
Каналы : 2 канала
Расположение каналов : Front: L R
Частота : 48,0 КГц
Битовая глубина : 16 бит
Метод сжатия : С потерями
Размер потока : 123 Мбайт (3%)
Заголовок : Многоголосый
Язык : Russian

Аудио #3
Идентификатор : 4
Формат : AC-3
Формат/Информация : Audio Coding 3
Расширение режима : CM (complete main)
Идентификатор кодека : A_AC3
Продолжительность : 1 ч. 29 м.
Вид битрейта : Постоянный
Битрейт : 448 Кбит/сек
Каналы : 2 канала
Расположение каналов : Front: L R
Частота : 48,0 КГц
Битовая глубина : 16 бит
Метод сжатия : С потерями
Размер потока : 288 Мбайт (6%)
Язык : French

Текст
Идентификатор : 5
Формат : UTF-8
Идентификатор кодека : S_TEXT/UTF8
Идентификатор кодека/Информация : UTF-8 Plain Text
Язык : Russian

Свернуть

Скриншоты
ИзображениеИзображениеИзображениеИзображениеИзображение
Свернуть
Не в сети
Профиль  
 Добавлено: 2011-11-13 14:14 (спустя 1 день 21 час)
Аватара пользователя
Стаж: 7 лет 2 месяца
Сообщений: 7167
Спасибок: 81984
Лайков: 2438
:-ok-: :co_ol: :ya_hoo_oo:
Не в сети
Профиль  
 Добавлено: 2012-08-27 20:55 (спустя 9 месяцев)
Аватара пользователя
Стаж: 7 лет 7 месяцев
Сообщений: 64
Спасибок: 10
Лайков: 2
спасибо
Не в сети
Профиль  
 Добавлено: 2013-02-14 19:09 (спустя 5 месяцев 17 дней)
Стаж: 8 лет 6 месяцев
Сообщений: 5
спасибо
Не в сети
Профиль  
Начать новую темуОтветить на тему  [ Сообщений: 4 ] 
Вы не можете начинать темы
Вы не можете отвечать на сообщения
Вы не можете редактировать свои сообщения
Вы не можете удалять свои сообщения