Правила форума

  • В этом разделе создание новых тем Запрещено.
  • Для создания новых тем пользуйтесь Корневым разделом DVD и HD фильмы.
Начать новую темуОтветить на тему  [ Сообщений: 3 ] 
Торрент файл
Размер: 4.37 GB • Зарегистрирован: 4 года 9 месяцев • Статус: Проверено
Скачан: 33 раза • Желающих скачать: 0 • Поблагодарили: 17 раз
 Раздают: 0  |  0 KB/s  ]   Качают: 0  |  0 KB/s  ] 
 Полного источника не было 8 месяцев 
Сообщения
 Добавлено: 2012-02-26 09:23
Top-seeder
Аватара пользователя
Стаж: 9 лет
Сообщений: 1399
Спасибок: 28653
Лайков: 8
Невезучие / Tais-toi!


Изображение


Год выпуска: 2003
Страна: Франция
Жанр: Комедия
Продолжительность: 01:27:07
Перевод: Профессиональный (полное дублирование)
Русские субтитры: есть

Режиссер: Франсис Вебер

В ролях: Жерар Депардье, Жан Рено, Андре Дюссолье, Ришар Берри, Леонор Варела, Тикки Ольгадо

Описание: Крепкий орешек Руби, успев спрятать награбленные деньги, угодил в тюрьму, где познакомился с болтливым верзилой Квентином. В голове у Кантена очень мало нейронов. Их хватает только на то, чтобы быть невероятно любезным и глупым настолько, чтобы его имя было внесено в Книгу Рекордов. Несравненной парочке надо придумать, как выбраться на волю. Руби жаждет найти своих партнеров по преступлению, чтобы отомстить за смерть возлюбленной и успеть вытащить деньги из тайника...

Качество: BD Rip
Формат: MKV
Видео кодек: H.264
Аудио кодек: DTS
Видео: 1280x544, 4919 kbps, 23.976 fps
Аудио1: Русский DTS 5.1, 48 KHz, 768 kbps
Аудио2: Французский DTS 5.1, 48 KHz, 1536 kbps
Субтитры: Русские, английские

MI
Общее
Уникальный идентификатор : 187881261421989678015749365364320154121 (0x8D589D5F59C4F303AD61DA844AE4B209)
Полное имя : D:\Закачки\Невезучие.mkv
Формат : Matroska
Размер файла : 4,37 Гбайт
Продолжительность : 1 ч. 27 м.
Общий поток : 7187 Кбит/сек
Дата кодирования : UTC 2008-11-17 15:55:40
Программа кодирования : mkvmerge v2.4.0 ('Fumbling Towards Ecstasy') built on Oct 11 2008 20:13:15
Библиотека кодирования : libebml v0.7.7 + libmatroska v0.8.1

Видео
Идентификатор : 1
Формат : AVC
Формат/Информация : Advanced Video Codec
Профиль формата : High@L4.1
Параметр CABAC формата : Да
Параметр ReFrames формата : 12 кадров
Идентификатор кодека : V_MPEG4/ISO/AVC
Продолжительность : 1 ч. 27 м.
Битрейт : 4919 Кбит/сек
Ширина : 1280 пикс.
Высота : 544 пикс.
Соотношение сторон : 2,35:1
Частота кадров : 23,976 кадр/сек
Цветовое пространство : YUV
Подвыборка цветности : 4:2:0
Битовая глубина : 8 бит
Тип развёртки : Прогрессивная
Бит/(Пиксели*Кадры) : 0.295
Размер потока : 2,91 Гбайт (67%)
Библиотека кодирования : x264 core 65 r1026M 745a48b
Настройки программы : cabac=1 / ref=12 / deblock=1:-3:-3 / analyse=0x3:0x113 / me=umh / subme=9 / psy_rd=1.0:0.0 / mixed_ref=1 / me_range=32 / chroma_me=1 / trellis=0 / 8x8dct=1 / cqm=2 / deadzone=6,4 / chroma_qp_offset=-2 / threads=6 / nr=0 / decimate=1 / mbaff=0 / bframes=3 / b_pyramid=1 / b_adapt=2 / b_bias=0 / direct=3 / wpredb=1 / keyint=240 / keyint_min=24 / scenecut=40(pre) / rc=2pass / bitrate=4919 / ratetol=1.0 / qcomp=0.60 / qpmin=10 / qpmax=51 / qpstep=4 / cplxblur=20.0 / qblur=0.5 / ip_ratio=1.40 / pb_ratio=1.30 / aq=1:1.00
Язык : French

Аудио #1
Идентификатор : 2
Формат : DTS
Формат/Информация : Digital Theater Systems
Идентификатор кодека : A_DTS
Продолжительность : 1 ч. 27 м.
Вид битрейта : Постоянный
Битрейт : 755 Кбит/сек
Каналы : 6 каналов
Расположение каналов : Front: L C R, Side: L R, LFE
Частота : 48,0 КГц
Битовая глубина : 24 бит
Метод сжатия : С потерями
Размер потока : 470 Мбайт (10%)
Заголовок : DTS 5.1 768 kbps
Язык : Russian

Аудио #2
Идентификатор : 3
Формат : DTS
Формат/Информация : Digital Theater Systems
Идентификатор кодека : A_DTS
Продолжительность : 1 ч. 27 м.
Вид битрейта : Постоянный
Битрейт : 1510 Кбит/сек
Каналы : 6 каналов
Расположение каналов : Front: L C R, Side: L R, LFE
Частота : 48,0 КГц
Битовая глубина : 24 бит
Метод сжатия : С потерями
Размер потока : 941 Мбайт (21%)
Заголовок : DTS 5.1 1536 kbps
Язык : French

Текст #1
Идентификатор : 4
Формат : UTF-8
Идентификатор кодека : S_TEXT/UTF8
Идентификатор кодека/Информация : UTF-8 Plain Text
Язык : Russian

Текст #2
Идентификатор : 5
Формат : UTF-8
Идентификатор кодека : S_TEXT/UTF8
Идентификатор кодека/Информация : UTF-8 Plain Text
Язык : English

Свернуть

Скриншоты
ИзображениеИзображениеИзображениеИзображение
Свернуть
Не в сети
Профиль  
 Добавлено: 2012-04-05 08:28 (спустя 1 месяц 7 дней)
Стаж: 4 года 8 месяцев
Сообщений: 53
Лайков: 1
прикольное кино первый раз смотрел чуть не опорожнился на месте!советую всем не пожалеете! автору спасибо!
Не в сети
Профиль  
 Добавлено: 2013-10-05 18:11 (спустя 1 год 6 месяцев)
Аватара пользователя
Стаж: 3 года 8 месяцев
Возраст: 23
Сообщений: 23
доброе кино в тоже время!! :hi_hi_hi:
Не в сети
Профиль  
Начать новую темуОтветить на тему  [ Сообщений: 3 ] 
Вы не можете начинать темы
Вы не можете отвечать на сообщения
Вы не можете редактировать свои сообщения
Вы не можете удалять свои сообщения
cron