Правила форума

  • В этом разделе создание новых тем Запрещено.
  • Для создания новых тем пользуйтесь Корневым разделом DVD и HD фильмы.
Начать новую темуОтветить на тему  [ Сообщений: 3 ] 
Торрент файл
Размер: 3.68 GB • Зарегистрирован: 4 года 3 месяца • Статус: Проверено
Скачан: 68 раз • Желающих скачать: 0 • Поблагодарили: 19 раз
 Раздают: 0  |  0 KB/s  ]   Качают: 0  |  0 KB/s  ] 
 Полного источника не было 1 год 
Сообщения
 Добавлено: 2012-08-08 19:16
Книголюб
Аватара пользователя
Стаж: 7 лет 2 месяца
Сообщений: 2823
Спасибок: 48823
Лайков: 73
Невидимый
The Invisible

Изображение


Год выпуска: 2007
Страна: США, Канада
Слоган: «Жизнь, смерть и что-то посередине»
Жанр: фэнтези, триллер, драма, криминал, детектив
Продолжительность: 01:42:23
Перевод: Профессиональный (дубляж)

Режиссёр: Дэвид С. Гойер
В ролях: Райан Кеннеди, Каллум Кит Ренни, Алекс О`Лахлан, Крис Маркетт, П. Линн Джонсон, Мишель Харрисон, Марша Гей Харден, Маргарита Левиева, Джастин Чэтвин, Эндрю Френсис
Описание: Нику уготовано блестящее будущее, но по нелепой и роковой случайности он становится жертвой жестокого нападения… Ник не умер, хотя его дух и покинул бренную оболочку. Его напуганная душа затерялась между миром живых и мертвых и тщетно пытается обрести покой.
Рейтинг MPAA: Рейтинг PG-13 (Дети до 13 лет допускаются на фильм только с родителями)
Бюджет: $30 000 000
Изображение 7.249 14 664

Качество: HQRip 720p.
Формат: MKV
Видео кодек: H.264
Аудио кодек: AC3 (Dolby Digital)
Видео: 1280x534, 23.976 fps, ~4700 kbps 0.287Bits/Pixel
Аудио #1: 48000Hz 6ch 448 kbps
MediaInfo
General
Unique ID : 206222876068810177672474823701968252526 (0x9B2514CB163583B8AB432E3683E0EE6E)
Complete name : K:\Torrent1\Nevidimyj.p.mkv
Format : Matroska
Format version : Version 2
File size : 3.68 GiB
Duration : 1h 42mn
Overall bit rate : 5 148 Kbps
Movie name : Glorian/AngeL
Encoded date : UTC 2012-05-01 03:36:30
Writing application : mkvmerge v5.5.0 ('Healer') built on Apr 6 2012 21:43:24
Writing library : libebml v1.2.3 + libmatroska v1.3.0

Video
ID : 1
Format : AVC
Format/Info : Advanced Video Codec
Format profile : High@L4.1
Format settings, CABAC : Yes
Format settings, ReFrames : 5 frames
Codec ID : V_MPEG4/ISO/AVC
Duration : 1h 42mn
Bit rate : 4 700 Kbps
Width : 1 280 pixels
Height : 534 pixels
Display aspect ratio : 2.40:1
Frame rate : 23.976 fps
Color space : YUV
Chroma subsampling : 4:2:0
Bit depth : 8 bits
Scan type : Progressive
Bits/(Pixel*Frame) : 0.287
Stream size : 3.29 GiB (89%)
Writing library : x264 core 104 r1688 0b36c6d
Encoding settings : cabac=1 / ref=5 / deblock=1:-3:-3 / analyse=0x3:0x113 / me=umh / subme=9 / psy=1 / psy_rd=1.00:0.00 / mixed_ref=1 / me_range=24 / chroma_me=1 / trellis=2 / 8x8dct=1 / cqm=0 / deadzone=21,11 / fast_pskip=0 / chroma_qp_offset=-2 / threads=6 / sliced_threads=0 / nr=0 / decimate=0 / interlaced=0 / constrained_intra=0 / bframes=9 / b_pyramid=2 / b_adapt=2 / b_bias=0 / direct=3 / weightb=1 / open_gop=0 / weightp=2 / keyint=250 / keyint_min=23 / scenecut=40 / intra_refresh=0 / rc=2pass / mbtree=0 / bitrate=4700 / ratetol=1.0 / qcomp=0.60 / qpmin=10 / qpmax=51 / qpstep=4 / cplxblur=20.0 / qblur=0.5 / ip_ratio=1.40 / pb_ratio=1.30 / aq=1:0.50
Language : English
Default : No
Forced : No

Audio
ID : 2
Format : AC-3
Format/Info : Audio Coding 3
Mode extension : CM (complete main)
Codec ID : A_AC3
Duration : 1h 42mn
Bit rate mode : Constant
Bit rate : 448 Kbps
Channel(s) : 6 channels
Channel positions : Front: L C R, Side: L R, LFE
Sampling rate : 48.0 KHz
Bit depth : 16 bits
Compression mode : Lossy
Stream size : 328 MiB (9%)
Title : Russian
Language : Russian
Default : No
Forced : No

Text #1
ID : 3
Format : UTF-8
Codec ID : S_TEXT/UTF8
Codec ID/Info : UTF-8 Plain Text
Title : Russian
Language : Russian
Default : No
Forced : No

Text #2
ID : 4
Format : UTF-8
Codec ID : S_TEXT/UTF8
Codec ID/Info : UTF-8 Plain Text
Title : English
Language : English
Default : No
Forced : No


Свернуть

Скриншоты
Изображение
Изображение
Изображение
Свернуть
Не в сети
Профиль  
 Добавлено: 2012-11-21 19:22 (спустя 3 месяца 13 дней)
Аватара пользователя
Стаж: 5 лет 11 месяцев
Сообщений: 34
Лайков: 1
Ребят раздайте пожалуйста
Не в сети
Профиль  
 Добавлено: 2014-06-29 21:33 (спустя 1 год 7 месяцев)
Стаж: 5 лет 11 месяцев
Сообщений: 6
раздайте!!!
Не в сети
Профиль  
Начать новую темуОтветить на тему  [ Сообщений: 3 ] 
Вы не можете начинать темы
Вы не можете отвечать на сообщения
Вы не можете редактировать свои сообщения
Вы не можете удалять свои сообщения