Правила форума

  • В этом разделе создание новых тем Запрещено.
  • Для создания новых тем пользуйтесь Корневым разделом DVD и HD фильмы.
Начать новую темуОтветить на тему  [ Сообщений: 4 ] 
Торрент файл
Размер: 5.47 GB • Зарегистрирован: 3 года 6 месяцев • Статус: Проверено
Скачан: 52 раза • Желающих скачать: 0 • Поблагодарили: 19 раз
 Раздают: 0  |  0 KB/s  ]   Качают: 0  |  0 KB/s  ] 
 Полного источника не было 2 месяца 20 дней 
Сообщения
 Добавлено: 2013-05-29 13:46
Аватара пользователя
Стаж: 7 лет 2 месяца
Сообщений: 7167
Спасибок: 81992
Лайков: 2438
Невозможное / Lo imposible

«Nothing is more powerful than the human spirit.»

Изображение


Год выпуска: 2012
Страна: Испания
Жанр: драма
Продолжительность: 01:53:41
Перевод: Профессиональный (дубляж) + Оригинальная звуковая дорожка
Субтитры: Русские, Английские

Режиссёр: Хуан Антонио Байона
В ролях: Наоми Уоттс, Юэн МакГрегор, Том Холлэнд, Сэмюэл Джослин, Оакли Пендергаст, Марта Этура, Шенке Мёринг, Джеральдин Чаплин, Плой Хиндачоте, Жомжаои Сэ-Лим
Описание: Лента о событиях, разворачивающихся на фоне цунами 2004 года.


Качество: BDRip 720p
Формат: MKV
Видео кодек: H264 (AVC)
Аудио кодек: AC3 (Dolby Digital)
Видео: 1 280x542, 24.000 fps, 5 924 kbps
Аудио #1: 48.0 KHz, 6 ch, 448 Kbps [Профессиональный (дубляж)] Лицензия
Аудио #2: 48.0 KHz, 6 ch, 384 Kbps [Оригинальная звуковая дорожка]
Субтитры: Русские, Английские
Изображение
Скриншоты
Изображение

Изображение

Изображение

Изображение

Изображение
Свернуть
Знаете ли Вы, что...
Многие актеры массовки — это люди, выжившие после цунами.
Наоми Уоттс и Юэн МакГрегор ранее уже играли персонажей, состоящих в отношениях, в фильме «Останься» (2005).
На кинофестивале в Торонто в 2012 году герои фильма встретились со своими прототипами из реальной жизни — семьей, которая выжила после цунами, на чьей истории и основан фильм.
Этот фильм был одним из последних фильмов испанской студии «Ciudad de la Luz» (City of Light). В октябре 2012 года она объявила о своем закрытии.
Фильм основан на реальной истории бывшего доктора из Испании Марии Белён Альварез, которая в декабре 2004 года отдыхала в Таиланде с мужем Энрике (Кике) и сыновьями Лукасом (12 лет), Симоном (8 лет) и Томасом (5 лет). Мария лично выбрала Наоми Уоттс на главную роль, хотя изображённая в фильме семья Беннет является английской.
По словам Наоми Уоттс продюсеры фильма услышали интервью по испанскому радио, в котором семья рассказывала свою историю о том, как они пережили цунами, и решили снять по ней фильм.
Когда Даниэль встречает своего отца, тот обращается к нему по-шведски, произнося его имя как «Йохан». Настоящее имя актера сыгравшего роль Даниэля — Йохан Сандберг, а актер, игравший его отца, это его настоящий отец — Жан Роланд Сандберг.
Когда Лукас разговаривает со шведом, который отчаянно пытается найти своего сына, он берет ручку и начинает писать имя мальчика левой рукой, но в следующем кадре он пишет его уже правой рукой.
Свернуть
MI
General
Unique ID : 194969117448470910935706025917652370648 (0x92ADAFA7B04D5D408D9CD43F68DF84D8)
Complete name : Невозможное.2012.mkv
Format : Matroska
Format version : Version 2
File size : 5.47 GiB
Duration : 1h 53mn
Overall bit rate : 6 893 Kbps
Encoded date : UTC 2013-05-29 06:43:04
Writing application : mkvmerge v5.8.0 ('No Sleep / Pillow') built on Sep 2 2012 15:37:04
Writing library : libebml v1.2.3 + libmatroska v1.3.0
Attachment : Yes

Video
ID : 1
Format : AVC
Format/Info : Advanced Video Codec
Format profile : High@L4.1
Format settings, CABAC : Yes
Format settings, ReFrames : 10 frames
Codec ID : V_MPEG4/ISO/AVC
Duration : 1h 53mn
Bit rate : 5 924 Kbps
Width : 1 280 pixels
Height : 542 pixels
Display aspect ratio : 2.35:1
Frame rate : 24.000 fps
Color space : YUV
Chroma subsampling : 4:2:0
Bit depth : 8 bits
Scan type : Progressive
Bits/(Pixel*Frame) : 0.356
Stream size : 4.70 GiB (86%)
Writing library : x264 core 125 r2208 d9d2288
Encoding settings : cabac=1 / ref=10 / deblock=1:-1:-1 / analyse=0x3:0x133 / me=tesa / subme=11 / psy=1 / psy_rd=1.00:0.10 / mixed_ref=1 / me_range=32 / chroma_me=1 / trellis=2 / 8x8dct=1 / cqm=0 / deadzone=21,11 / fast_pskip=0 / chroma_qp_offset=-3 / threads=12 / lookahead_threads=2 / sliced_threads=0 / nr=0 / decimate=1 / interlaced=0 / bluray_compat=0 / constrained_intra=0 / bframes=8 / b_pyramid=2 / b_adapt=2 / b_bias=0 / direct=1 / weightb=1 / open_gop=0 / weightp=2 / keyint=250 / keyint_min=24 / scenecut=40 / intra_refresh=0 / rc=crf / mbtree=0 / crf=17.5 / qcomp=0.60 / qpmin=0 / qpmax=69 / qpstep=4 / ip_ratio=1.40 / pb_ratio=1.30 / aq=2:1.00
Language : English
Default : Yes
Forced : No

Audio #1
ID : 2
Format : AC-3
Format/Info : Audio Coding 3
Mode extension : CM (complete main)
Format settings, Endianness : Big
Codec ID : A_AC3
Duration : 1h 53mn
Bit rate mode : Constant
Bit rate : 448 Kbps
Channel(s) : 6 channels
Channel positions : Front: L C R, Side: L R, LFE
Sampling rate : 48.0 KHz
Bit depth : 16 bits
Compression mode : Lossy
Stream size : 364 MiB (6%)
Title : Russian | DUB
Language : Russian
Default : Yes
Forced : Yes

Audio #2
ID : 3
Format : AC-3
Format/Info : Audio Coding 3
Mode extension : CM (complete main)
Format settings, Endianness : Big
Codec ID : A_AC3
Duration : 1h 53mn
Bit rate mode : Constant
Bit rate : 384 Kbps
Channel(s) : 6 channels
Channel positions : Front: L C R, Side: L R, LFE
Sampling rate : 48.0 KHz
Bit depth : 16 bits
Compression mode : Lossy
Stream size : 312 MiB (6%)
Title : English | Original
Language : English
Default : No
Forced : No

Text #1
ID : 4
Format : UTF-8
Codec ID : S_TEXT/UTF8
Codec ID/Info : UTF-8 Plain Text
Language : Russian
Default : No
Forced : No

Text #2
ID : 5
Format : UTF-8
Codec ID : S_TEXT/UTF8
Codec ID/Info : UTF-8 Plain Text
Language : English
Default : No
Forced : No

Menu
00:00:00.000 : en:
00:07:10.291 : en:
00:12:50.875 : en:
00:21:20.250 : en:
00:27:02.625 : en:
00:31:59.083 : en:
00:38:13.791 : en:
00:44:35.833 : en:
00:51:09.125 : en:
00:56:24.041 : en:
01:03:24.583 : en:
01:10:14.500 : en:
01:15:27.291 : en:
01:23:51.083 : en:
01:36:00.500 : en:


Свернуть
 rotametr нравится это.
Не в сети
Профиль  
 Добавлено: 2013-12-04 21:49 (спустя 6 месяцев)
Стаж: 6 лет 6 месяцев
Сообщений: 175
Лайков: 2
:sh_ok:
Не в сети
Профиль  
 Добавлено: 2013-12-07 18:27 (спустя 2 дня 20 часов)
Стаж: 6 лет 6 месяцев
Сообщений: 175
Лайков: 2
Невозможное невозможно скачать :) :du_ma_et: .
Не в сети
Профиль  
 Добавлено: 2015-06-08 19:01 (спустя 1 год 6 месяцев)
Стаж: 8 лет 1 месяц
Сообщений: 210
Спасибок: 1
Лайков: 3
охеренный фильмец
Не в сети
Профиль  
Начать новую темуОтветить на тему  [ Сообщений: 4 ] 
Вы не можете начинать темы
Вы не можете отвечать на сообщения
Вы не можете редактировать свои сообщения
Вы не можете удалять свои сообщения