Правила форума

  • В этом разделе создание новых тем Запрещено.
  • Для создания новых тем пользуйтесь Корневым разделом DVD и HD фильмы.
Начать новую темуОтветить на тему  [ Сообщений: 8 ] 
Торрент файл
Размер: 13.41 GB • Зарегистрирован: 3 года 7 месяцев • Статус: Проверено
Скачан: 265 раз • Желающих скачать: 0 • Поблагодарили: 69 раз
 Раздают: 1  |  0 KB/s  ]   Качают: 0  |  0 KB/s  ] 
Сообщения
 Добавлено: 2013-04-16 12:06
Аватара пользователя
Стаж: 9 лет 1 месяц
Сообщений: 7919
Спасибок: 122103
Лайков: 1191
Невозможное / Lo imposible

«Nothing is more powerful than the human spirit.»

Изображение


Год выпуска: 2012
Страна: Изображение Испания
Жанр: драма
Продолжительность: 01:53:31
Субтитры: Английские, польские, шведские, чешские, болгарские, румынские, сербские, греческие, арабские
Перевод: Профессиональный (полное дублирование) [Лицензия] + Профессиональный (двухголосый, закадровый) [«Омикрон»]


Режиссёр: Хуан Антонио Байона
Сценарист: Серхио Х. Санчес, Мария Белон
Продюсер: Белен Атьенца, Альваро Аугустин, Гислен Баруа
Оператор: Оскар Фаура
Композитор: Фернандо Веласкес

В ролях: Наоми Уоттс, Юэн МакГрегор, Том Холлэнд, Сэмюэл Джослин, Оакли Пендергаст, Марта Этура, Шенке Мёринг, Джеральдин Чаплин, Плой Хиндачоте, Жомжаои Сэ-Лим

Описание: Лента о событиях, разворачивающихся на фоне цунами 2004 года.

Изображение Изображение

Раздача группы: Изображение

Качество: BDRip (1080p)
Формат: Matroska
Видео: MPEG-4 AVC, 13.1 Mбит/с, 1920x812
Аудио №1: Русский (AC3, 48,0 КГц, 6 ch, 448 Кбит/c) Дубляж
Аудио №2: Русский (DTS, 48,0 КГц, 6 ch, 1510 Кбит/c) «Омикрон»
Аудио №3: Английский (DTS, 48,0 КГц, 6 ch, 1510 Кбит/c)

MediaInfo
Общее
Уникальный идентификатор : 221559019669774144345995177808701144469 (0xA6AEB70D10B41588AB6206035DBFBD95)
Полное имя : C:\Фильмы\The.Impossible.2012.1080p.BluRay.Rus.Eng.R.G.Daredevil.mkv
Формат : Matroska
Версия формата : Version 2
Размер файла : 13,4 Гбайт
Продолжительность : 1 ч. 53 м.
Общий поток : 16,9 Мбит/сек
Дата кодирования : UTC 2013-04-16 08:39:08
Программа кодирования : mkvmerge v5.7.0 ('The Whirlwind') built on Jul 29 2012 15:12:35
Библиотека кодирования : libebml v1.2.3 + libmatroska v1.3.0

Видео
Идентификатор : 1
Формат : AVC
Формат/Информация : Advanced Video Codec
Профиль формата : High@L4.1
Параметр CABAC формата : Да
Параметр ReFrames формата : 4 кадра
Идентификатор кодека : V_MPEG4/ISO/AVC
Продолжительность : 1 ч. 53 м.
Битрейт : 13,1 Мбит/сек
Ширина : 1920 пикселей
Высота : 812 пикселей
Соотношение сторон : 2,35:1
Режим частоты кадров : Постоянный
Частота кадров : 24,000 кадра/сек
Цветовое пространство : YUV
Субдискретизация насыщенности : 4:2:0
Битовая глубина : 8 бит
Тип развёртки : Прогрессивная
Бит/(Пиксели*Кадры) : 0.350
Размер потока : 10,4 Гбайт (78%)
Заголовок : Release for HDCLUB
Библиотека кодирования : x264 core 129 r2230 1cffe9f
Настройки программы : cabac=1 / ref=4 / deblock=1:-3:-3 / analyse=0x3:0x133 / me=umh / subme=10 / psy=1 / psy_rd=1.00:0.00 / mixed_ref=1 / me_range=24 / chroma_me=1 / trellis=2 / 8x8dct=1 / cqm=0 / deadzone=21,11 / fast_pskip=0 / chroma_qp_offset=-2 / threads=6 / lookahead_threads=1 / sliced_threads=0 / nr=0 / decimate=0 / interlaced=0 / bluray_compat=0 / constrained_intra=0 / bframes=8 / b_pyramid=2 / b_adapt=2 / b_bias=0 / direct=3 / weightb=1 / open_gop=0 / weightp=2 / keyint=250 / keyint_min=24 / scenecut=40 / intra_refresh=0 / rc=crf / mbtree=0 / crf=17.8 / qcomp=0.60 / qpmin=0 / qpmax=69 / qpstep=4 / ip_ratio=1.40 / pb_ratio=1.30 / aq=1:0.90
Язык : English
Default : Нет
Forced : Нет

Аудио #1
Идентификатор : 2
Формат : AC-3
Формат/Информация : Audio Coding 3
Расширение режима : CM (complete main)
Параметр Endianness формата : Big
Идентификатор кодека : A_AC3
Продолжительность : 1 ч. 53 м.
Вид битрейта : Постоянный
Битрейт : 448 Кбит/сек
Каналы : 6 каналов
Расположение каналов : Front: L C R, Side: L R, LFE
Частота : 48,0 КГц
Битовая глубина : 16 бит
Метод сжатия : С потерями
Размер потока : 364 Мбайт (3%)
Язык : Russian
Default : Да
Forced : Да

Аудио #2
Идентификатор : 3
Формат : DTS
Формат/Информация : Digital Theater Systems
Режим : 16
Параметр Endianness формата : Big
Идентификатор кодека : A_DTS
Продолжительность : 1 ч. 53 м.
Вид битрейта : Постоянный
Битрейт : 1509 Кбит/сек
Каналы : 6 каналов
Расположение каналов : Front: L C R, Side: L R, LFE
Частота : 48,0 КГц
Битовая глубина : 16 бит
Метод сжатия : С потерями
Размер потока : 1,20 Гбайт (9%)
Заголовок : DTS 5.1 @ 1536 kbps - MVO, studio Omicron
Язык : Russian
Default : Нет
Forced : Нет

Аудио #3
Идентификатор : 4
Формат : DTS
Формат/Информация : Digital Theater Systems
Режим : 16
Параметр Endianness формата : Big
Идентификатор кодека : A_DTS
Продолжительность : 1 ч. 53 м.
Вид битрейта : Постоянный
Битрейт : 1509 Кбит/сек
Каналы : 6 каналов
Расположение каналов : Front: L C R, Side: L R, LFE
Частота : 48,0 КГц
Битовая глубина : 24 бит
Метод сжатия : С потерями
Задержка видео : 11 мс.
Размер потока : 1,20 Гбайт (9%)
Заголовок : DTS 5.1 @ 1536 kbps
Язык : English
Default : Нет
Forced : Нет

Текст #1
Идентификатор : 5
Формат : UTF-8
Идентификатор кодека : S_TEXT/UTF8
Идентификатор кодека/Информация : UTF-8 Plain Text
Язык : English
Default : Нет
Forced : Нет

Текст #2
Идентификатор : 6
Формат : UTF-8
Идентификатор кодека : S_TEXT/UTF8
Идентификатор кодека/Информация : UTF-8 Plain Text
Язык : Polish
Default : Нет
Forced : Нет

Текст #3
Идентификатор : 7
Формат : UTF-8
Идентификатор кодека : S_TEXT/UTF8
Идентификатор кодека/Информация : UTF-8 Plain Text
Язык : Swedish
Default : Нет
Forced : Нет

Текст #4
Идентификатор : 8
Формат : UTF-8
Идентификатор кодека : S_TEXT/UTF8
Идентификатор кодека/Информация : UTF-8 Plain Text
Язык : Czech
Default : Нет
Forced : Нет

Текст #5
Идентификатор : 9
Формат : UTF-8
Идентификатор кодека : S_TEXT/UTF8
Идентификатор кодека/Информация : UTF-8 Plain Text
Язык : Bulgarian
Default : Нет
Forced : Нет

Текст #6
Идентификатор : 10
Формат : UTF-8
Идентификатор кодека : S_TEXT/UTF8
Идентификатор кодека/Информация : UTF-8 Plain Text
Язык : Romanian
Default : Нет
Forced : Нет

Текст #7
Идентификатор : 11
Формат : UTF-8
Идентификатор кодека : S_TEXT/UTF8
Идентификатор кодека/Информация : UTF-8 Plain Text
Язык : Serbian
Default : Нет
Forced : Нет

Текст #8
Идентификатор : 12
Формат : UTF-8
Идентификатор кодека : S_TEXT/UTF8
Идентификатор кодека/Информация : UTF-8 Plain Text
Язык : Greek
Default : Нет
Forced : Нет

Текст #9
Идентификатор : 13
Формат : UTF-8
Идентификатор кодека : S_TEXT/UTF8
Идентификатор кодека/Информация : UTF-8 Plain Text
Язык : Arabic
Default : Нет
Forced : Нет

Меню
00:00:00.000 : en:00:00:00.000
00:07:10.292 : en:00:07:10.292
00:12:50.875 : en:00:12:50.875
00:21:20.250 : en:00:21:20.250
00:27:02.625 : en:00:27:02.625
00:31:59.083 : en:00:31:59.083
00:38:13.792 : en:00:38:13.792
00:44:35.833 : en:00:44:35.833
00:51:09.125 : en:00:51:09.125
00:56:24.042 : en:00:56:24.042
01:03:24.583 : en:01:03:24.583
01:10:14.500 : en:01:10:14.500
01:15:27.292 : en:01:15:27.292
01:23:51.083 : en:01:23:51.083
01:36:00.500 : en:01:36:00.500
Свернуть
Знаете ли вы, что...
Многие актеры массовки — это люди, выжившие после цунами.

Наоми Уоттс и Юэн МакГрегор ранее уже играли персонажей, состоящих в отношениях, в фильме «Останься» (2005).

На кинофестивале в Торонто в 2012 году герои фильма встретились со своими прототипами из реальной жизни — семьей, которая выжила после цунами, на чьей истории и основан фильм.

Этот фильм был одним из последних фильмов испанской студии «Ciudad de la Luz» (City of Light). В октябре 2012 года она объявила о своем закрытии.

Фильм основан на реальной истории бывшего доктора из Испании Марии Белён Альварез, которая в декабре 2004 года отдыхала в Таиланде с мужем Энрике (Кике) и сыновьями Лукасом (12 лет), Симоном (8 лет) и Томасом (5 лет). Мария лично выбрала Наоми Уоттс на главную роль, хотя изображённая в фильме семья Беннет является английской.

По словам Наоми Уоттс продюсеры фильма услышали интервью по испанскому радио, в котором семья рассказывала свою историю о том, как они пережили цунами, и решили снять по ней фильм.

Когда Даниэль встречает своего отца, тот обращается к нему по-шведски, произнося его имя как «Йохан». Настоящее имя актера сыгравшего роль Даниэля — Йохан Сандберг, а актер, игравший его отца, это его настоящий отец — Жан Роланд Сандберг.

Когда Лукас разговаривает со шведом, который отчаянно пытается найти своего сына, он берет ручку и начинает писать имя мальчика левой рукой, но в следующем кадре он пишет его уже правой рукой.

Свернуть
Скриншоты
Изображение
Изображение
Изображение
Изображение
Свернуть
Не в сети
Профиль  
 Добавлено: 2013-04-16 14:11 (спустя 2 часа 5 минут)
Top-seeder
Аватара пользователя
Стаж: 8 лет 8 месяцев
Возраст: 26
Сообщений: 665
Спасибок: 2687
Лайков: 2
что за! скачал 14 гигов чтоб выяснить что здесь рассинхронизация звука с картинкой! :'( ужас!
Не в сети
Профиль  
 Добавлено: 2013-04-16 16:53 (спустя 2 часа 42 минуты)
Аватара пользователя
Стаж: 9 лет
Сообщений: 100
Спасибок: 338
Лайков: 1
ладно подождем другого варианта...
Не в сети
Профиль  
 Добавлено: 2013-04-16 16:58 (спустя 5 минут)
Руководитель релиз-группы
Аватара пользователя
Стаж: 7 лет 4 месяца
Возраст: 31
Сообщений: 3407
Спасибок: 46728
Лайков: 5
krazz
Что со звуком ?
Не в сети
Профиль  
 Добавлено: 2013-04-16 17:01 (спустя 2 минуты)
Стаж: 6 лет 4 месяца
Сообщений: 5
исправленная версия будет?
Не в сети
Профиль  
 Добавлено: 2013-04-16 17:07 (спустя 6 минут)
Аватара пользователя
Стаж: 8 лет 3 месяца
Сообщений: 106
Спасибок: 21
Лайков: 7
:se_lya_ne:
Не в сети
Профиль  
 Добавлено: 2013-04-16 17:28 (спустя 20 минут)
Аватара пользователя
Стаж: 9 лет 1 месяц
Сообщений: 7919
Спасибок: 122103
Лайков: 1191
Торрент заменен, проблема с рассинхроном решена
Не в сети
Профиль  
 Добавлено: 2013-04-16 17:45 (спустя 17 минут)
Аватара пользователя
Стаж: 9 лет
Возраст: 30
Сообщений: 1008
Спасибок: 3392
Лайков: 2
Фильм супер! Смотрел в Кинотеатре "Шоколад! - Я плакал.. Тронула до глубины души! Фильм на один раз, т.к. больше плакать не хочу ))))
_________________
"Choose!!!"
Изображение
Свернуть
Не в сети
Профиль  
Начать новую темуОтветить на тему  [ Сообщений: 8 ] 
Вы не можете начинать темы
Вы не можете отвечать на сообщения
Вы не можете редактировать свои сообщения
Вы не можете удалять свои сообщения