Правила форума

  • В этом разделе создание новых тем Запрещено.
  • Для создания новых тем пользуйтесь Корневым разделом DVD и HD фильмы.
Начать новую темуОтветить на тему  [ 1 сообщение ] 
Торрент файл
Размер: 4.9 GB • Зарегистрирован: 3 года 5 месяцев • Статус: Проверено
Скачан: 74 раза • Желающих скачать: 0 • Поблагодарили: 17 раз
 Раздают: 0  |  0 KB/s  ]   Качают: 0  |  0 KB/s  ] 
 Полного источника не было 1 год 5 месяцев 
Сообщения
 Добавлено: 2013-06-12 04:43
DVD Release Group
Аватара пользователя
Стаж: 7 лет 1 месяц
Сообщений: 3545
Спасибок: 246961
Лайков: 1018
Никто не выжил

No One Lives


Изображение


Год выпуска: 2012
Страна: США
Жанр: Ужасы, триллер
Продолжительность: 01:27:32
Перевод: Профессиональный (полное дублирование)
Субтитры: Русские
Режиссер: Рюхэй Китамура
В ролях: Люк Эванс, Эделейд Клеменс, Дерек Магияр, Бо Напп, Америка Оливо, Ли Тергесен, Линдси Шоу
Описание: Безжалостные преступники спрятали в заброшенном доме двух заложников, юношу и девушку. Однако через некоторое время головорезы находят заложницу мертвой и неожиданно понимают, что юноша не так прост, как казался на первый взгляд. И теперь это он на них охотится…
Изображение Изображение
Дополнительно: Сохранены оригинальные чаптеры как на Blu-Ray
Sample:
http://multi-up.com/874533
Качество: BDRip 720p
Формат: MKV
Видео кодек: H264
Аудио кодек: DTS
Видео: 1280x536 24fps 5282Kbps
Аудио:
Audio Rus: 48kHz 6ch 1510Kbps
Audio Eng: 48kHz 6ch 1510Kbps
"MediaInfo"
Формат : Matroska
Версия формата : Version 4 / Version 2
Размер файла : 4,90 Гбайт
Продолжительность : 1 ч. 27 м.
Общий поток : 8014 Кбит/сек
Название фильма : Никто не выжил
Дата кодирования : UTC 2013-06-11 16:54:43
Программа кодирования : mkvmerge v6.2.0 ('Promised Land') built on Apr 28 2013 12:22:01
Библиотека кодирования : libebml v1.3.0 + libmatroska v1.4.0

Видео
Идентификатор : 1
Формат : AVC
Формат/Информация : Advanced Video Codec
Профиль формата : High@L4.1
Параметр CABAC формата : Да
Параметр ReFrames формата : 12 кадров
Идентификатор кодека : V_MPEG4/ISO/AVC
Продолжительность : 1 ч. 27 м.
Битрейт : 5000 Кбит/сек
Ширина : 1280 пикселей
Высота : 536 пикселей
Соотношение сторон : 2,40:1
Частота кадров : 24,000 кадра/сек
Цветовое пространство : YUV
Субдискретизация насыщенности : 4:2:0
Битовая глубина : 8 бит
Тип развёртки : Прогрессивная
Бит/(Пиксели*Кадры) : 0.304
Размер потока : 2,96 Гбайт (60%)
Заголовок : No One Lives 2012 720p BluRay DTS x264-IRONCLUB
Библиотека кодирования : x264 core 132 r2309kMod 3b1f1f7
Настройки программы : cabac=1 / ref=12 / deblock=1:-3:-3 / analyse=0x3:0x113 / me=umh / subme=11 / psy=1 / fade_compensate=0.00 / psy_rd=1.10:0.00 / mixed_ref=1 / me_range=48 / chroma_me=1 / trellis=2 / 8x8dct=1 / cqm=0 / deadzone=21,11 / fast_pskip=0 / chroma_qp_offset=-2 / threads=12 / lookahead_threads=2 / sliced_threads=0 / nr=0 / decimate=1 / interlaced=0 / bluray_compat=0 / constrained_intra=0 / bframes=9 / b_pyramid=2 / b_adapt=2 / b_bias=0 / direct=3 / weightb=1 / open_gop=0 / weightp=2 / keyint=250 / keyint_min=24 / scenecut=40 / intra_refresh=0 / rc_lookahead=60 / rc=2pass / mbtree=0 / bitrate=5000 / ratetol=1.0 / qcomp=0.70 / qpmin=0 / qpmax=69 / qpstep=4 / cplxblur=20.0 / qblur=0.5 / vbv_maxrate=50000 / vbv_bufsize=62500 / nal_hrd=none / ip_ratio=1.30 / pb_ratio=1.20 / aq=1:0.80
Язык : English
Default : Да
Forced : Да
Коэффициенты матрицы : BT.709-5, BT.1361, IEC 61966-2-4 709, SMPTE RP177

Аудио #1
Идентификатор : 2
Формат : DTS
Формат/Информация : Digital Theater Systems
Идентификатор кодека : A_DTS
Продолжительность : 1 ч. 27 м.
Вид битрейта : Постоянный
Битрейт : 1510 Кбит/сек
Каналы : 6 каналов
Расположение каналов : Front: L C R, Side: L R, LFE
Частота : 48,0 КГц
Битовая глубина : 16 бит
Метод сжатия : С потерями
Размер потока : 945 Мбайт (19%)
Заголовок : DTS 5.1 @ 1536 kbps - Dub, BD RUS
Язык : Russian
Default : Да
Forced : Да

Аудио #2
Идентификатор : 3
Формат : DTS
Формат/Информация : Digital Theater Systems
Идентификатор кодека : A_DTS
Продолжительность : 1 ч. 27 м.
Вид битрейта : Постоянный
Битрейт : 1510 Кбит/сек
Каналы : 6 каналов
Расположение каналов : Front: L C R, Side: L R, LFE
Частота : 48,0 КГц
Битовая глубина : 16 бит
Метод сжатия : С потерями
Размер потока : 945 Мбайт (19%)
Заголовок : DTS 5.1 @ 1536 kbps
Язык : English
Default : Нет
Forced : Нет

Текст
Идентификатор : 4
Формат : UTF-8
Идентификатор кодека : S_TEXT/UTF8
Идентификатор кодека/Информация : UTF-8 Plain Text
Язык : Russian
Default : Нет
Forced : Нет

Меню
00:00:00.000 : en:00:00:00.000
00:07:40.208 : en:00:07:40.208
00:11:02.500 : en:00:11:02.500
00:16:42.541 : en:00:16:42.541
00:23:51.791 : en:00:23:51.791
00:27:58.375 : en:00:27:58.375
00:34:12.291 : en:00:34:12.291
00:42:55.541 : en:00:42:55.541
00:52:08.458 : en:00:52:08.458
00:59:29.041 : en:00:59:29.041
01:09:03.625 : en:01:09:03.625
01:16:36.166 : en:01:16:36.166
Свернуть

"Скриншоты"
Изображение
Изображение
Изображение
Изображение
Свернуть

Раздача группы:
Изображение
Не в сети
Профиль  
Начать новую темуОтветить на тему  [ 1 сообщение ] 
Вы не можете начинать темы
Вы не можете отвечать на сообщения
Вы не можете редактировать свои сообщения
Вы не можете удалять свои сообщения