Правила форума

  • В этом разделе создание новых тем Запрещено.
  • Для создания новых тем пользуйтесь Корневым разделом DVD и HD фильмы.
Начать новую темуОтветить на тему  [ Сообщений: 4 ] 
Торрент файл
Размер: 8.02 GB • Зарегистрирован: 3 года 5 месяцев • Статус: Проверено
Скачан: 128 раз • Желающих скачать: 0 • Поблагодарили: 32 раза
 Раздают: 0  |  0 KB/s  ]   Качают: 0  |  0 KB/s  ] 
 Полного источника не было 7 дней 
Сообщения
 Добавлено: 2013-06-13 17:01
Модератор
Аватара пользователя
Стаж: 8 лет 7 месяцев
Сообщений: 4965
Спасибок: 110253
Лайков: 18
Изображение

Никто не выжил / No One Lives


Год выпуска: 2012
Страна: США

Жанр: триллер, ужасы
Продолжительность: 01:27:32
Перевод: Профессиональный (полное дублирование)

Режиссер: Рюхэй Китамура / Ryuhei Kitamura
Сценарий: Дэвид Коэн / David Cohen
Продюсер: Гарри Кнапп / Harry Knapp, Ками Нахди / Kami Naghdi, Элтон Брэнд / Elton Brand, Майкл Луизи / Michael Luisi, Мэтт Тредуэлл / Matt Treadwell
Оператор: Дэниэл Перл / Daniel Pearl
Композитор: Джером Диллон / Jerome Dillon

В ролях: Люк Эванс (Driver), Эделейд Клеменс (Emma), Ли Тергесен (Hoag), Дерек Магияр (Flynn), Америка Оливо (Tamara), Бо Напп (Denny), Линдси Шоу (Amber), Джордж Мердок (Ethan), Лаура Рэмси (Betty), Гэри Граббс (Harris), Андреа Франкл (Mom), Роберт Мартин Стейнберг (Father)
Дублёры: Сергей Смирнов (Driver), Лиза Мартиросова (Emma), Василий Дахненко (Hoag), Антон Колесников (Flynn), Татьяна Шитова (Tamara), Даниил Щебланов (Denny), Ирина Киреева (Amber), Артем Маликов (Ethan), Валентина Абрамова (Betty), Владимир Герасимов (Harris)
Бюджет: $2 900 000
Сборы в США: $74 918
Сборы в России: $580 007

Мировая премьера: 8 сентября 2012
Релиз на DVD: 13 июня 2013, «CP Дистрибуция»
Релиз на Blu-ray: 13 июня 2013, «CP Дистрибуция»
Описание:Безжалостные преступники спрятали в заброшенном доме двух заложников, юношу и девушку. Однако через некоторое время головорезы находят заложницу мертвой и неожиданно понимают, что юноша не так прост, как казался на первый взгляд. И теперь это он на них охотится...
Изображение 6.2/10 (732 users) Изображение 6.037 (3,614)
MPAA: Изображение - Лицам до 17 лет обязательно присутствие взрослого
Релиз от: Изображение
Релиз группа: Изображение
Раздача группы: Изображение
Качество: BDRip 1080p
Формат: MKV

Видео: AVC; 1920x800 (2.40:1); 10100 Kbps; 24 fps; 0,274 bpp
Аудио №1: русский; DTS; 1510 Kbps; CBR; 6 ch; 24 bit
Аудио №2: английский; DTS; 1510 Kbps; CBR; 6 ch; 24 bit
Дополнительно: Сохранены оригинальные чаптеры как на Blu-Ray
Субтитры: русские
"NFO"
Format : Matroska
Format version : Version 4 / Version 2
File size : 8.02 GiB
Duration : 1h 27mn
Overall bit rate : 13.1 Mbps
Movie name : CMEGRoup
Encoded date : UTC 2013-06-13 04:27:16
Writing application : mkvmerge v6.1.0 ('Old Devil') built on Mar 2 2013 14:32:37
Writing library : libebml v1.3.0 + libmatroska v1.4.0

Video
ID : 1
Format : AVC
Format/Info : Advanced Video Codec
Format profile : High@L4.1
Format settings, CABAC : Yes
Format settings, ReFrames : 4 frames
Codec ID : V_MPEG4/ISO/AVC
Duration : 1h 27mn
Bit rate : 10.1 Mbps
Width : 1 920 pixels
Height : 800 pixels
Display aspect ratio : 2.40:1
Frame rate mode : Constant
Frame rate : 24.000 fps
Color space : YUV
Chroma subsampling : 4:2:0
Bit depth : 8 bits
Scan type : Progressive
Bits/(Pixel*Frame) : 0.274
Stream size : 6.01 GiB (75%)
Writing library : x264 core 133 r2334 a3ac64b
Encoding settings : cabac=1 / ref=4 / deblock=1:-3:-3 / analyse=0x3:0x113 / me=umh / subme=11 / psy=1 / psy_rd=1.00:0.00 / mixed_ref=1 / me_range=24 / chroma_me=1 / trellis=2 / 8x8dct=1 / cqm=0 / deadzone=21,11 / fast_pskip=1 / chroma_qp_offset=-2 / threads=6 / lookahead_threads=1 / sliced_threads=0 / nr=0 / decimate=1 / interlaced=0 / bluray_compat=0 / constrained_intra=0 / bframes=5 / b_pyramid=2 / b_adapt=2 / b_bias=0 / direct=2 / weightb=0 / open_gop=0 / weightp=2 / keyint=240 / keyint_min=24 / scenecut=40 / intra_refresh=0 / rc_lookahead=40 / rc=2pass / mbtree=1 / bitrate=10100 / ratetol=1.0 / qcomp=0.60 / qpmin=0 / qpmax=69 / qpstep=4 / cplxblur=20.0 / qblur=0.5 / vbv_maxrate=62500 / vbv_bufsize=78125 / nal_hrd=none / ip_ratio=1.40 / aq=1:1.00
Language : English
Default : Yes
Forced : No

Audio #1
ID : 2
Format : DTS
Format/Info : Digital Theater Systems
Mode : 16
Format settings, Endianness : Big
Codec ID : A_DTS
Duration : 1h 27mn
Bit rate mode : Constant
Bit rate : 1 509 Kbps
Channel(s) : 6 channels
Channel positions : Front: L C R, Side: L R, LFE
Sampling rate : 48.0 KHz
Bit depth : 24 bits
Compression mode : Lossy
Stream size : 945 MiB (12%)
Language : Russian
Default : Yes
Forced : No

Audio #2
ID : 3
Format : DTS
Format/Info : Digital Theater Systems
Mode : 16
Format settings, Endianness : Big
Codec ID : A_DTS
Duration : 1h 27mn
Bit rate mode : Constant
Bit rate : 1 509 Kbps
Channel(s) : 6 channels
Channel positions : Front: L C R, Side: L R, LFE
Sampling rate : 48.0 KHz
Bit depth : 24 bits
Compression mode : Lossy
Stream size : 945 MiB (12%)
Language : English
Default : No
Forced : No

Text
ID : 4
Format : UTF-8
Codec ID : S_TEXT/UTF8
Codec ID/Info : UTF-8 Plain Text
Language : Russian
Default : Yes
Forced : No

Menu
00:00:00.000 : :Chapter 01
00:07:40.208 : :Chapter 02
00:11:02.500 : :Chapter 03
00:16:42.541 : :Chapter 04
00:23:51.791 : :Chapter 05
00:27:58.375 : :Chapter 06
00:34:12.291 : :Chapter 07
00:42:55.541 : :Chapter 08
00:52:08.458 : :Chapter 09
00:59:29.041 : :Chapter 10
01:09:03.625 : :Chapter 11
01:16:36.166 : :Chapter 12
Свернуть
"Скриншоты"

Изображение

Изображение

Изображение
Свернуть
_________________
Изображение Изображение Изображение
Билайн / АДС добавляйте ретрекер, чтобы качать на скорости 100 Мбит/с
Cкрытый текст
Изображение
Свернуть


Последний раз редактировалось NFSMW 2013-06-13 23:48, всего редактировалось 3 раз(а).
Не в сети
Профиль  
 Добавлено: 2013-06-13 17:09 (спустя 8 минут)
Модератор релиз-группы
Аватара пользователя
Стаж: 9 лет 1 месяц
Возраст: 97
Сообщений: 11659
Спасибок: 6530
Лайков: 269

NFSMW:

ужасыслова
:du_ma_et:
_________________
Изображение
Не в сети
Профиль  
 Добавлено: 2013-06-13 17:15 (спустя 5 минут)
Модератор
Аватара пользователя
Стаж: 8 лет 7 месяцев
Сообщений: 4965
Спасибок: 110253
Лайков: 18

Артурыч:

NFSMW:

ужасыслова
:du_ma_et:
Флэш по таращило :-D
_________________
Изображение Изображение Изображение
Билайн / АДС добавляйте ретрекер, чтобы качать на скорости 100 Мбит/с
Cкрытый текст
Изображение
Свернуть
Не в сети
Профиль  
 Добавлено: 2014-12-24 09:18 (спустя 1 год 6 месяцев)
Аватара пользователя
Стаж: 5 лет 5 месяцев
Возраст: 23
Сообщений: 484
Спасибок: 1403
Лайков: 1
раздайте :)
Не в сети
Профиль  
Начать новую темуОтветить на тему  [ Сообщений: 4 ] 
Вы не можете начинать темы
Вы не можете отвечать на сообщения
Вы не можете редактировать свои сообщения
Вы не можете удалять свои сообщения