Правила форума

  • В этом разделе создание новых тем Запрещено.
  • Для создания новых тем пользуйтесь Корневым разделом DVD и HD фильмы.
Начать новую темуОтветить на тему  [ Сообщений: 4 ] 
Торрент файл
Размер: 6.84 GB • Зарегистрирован: 5 лет • Статус: T Временный релиз
Скачан: 100 раз • Желающих скачать: 0 • Поблагодарили: 19 раз
 Раздают: 0  |  0 KB/s  ]   Качают: 0  |  0 KB/s  ] 
 Полного источника не было 9 месяцев 
Сообщения
 Добавлено: 2011-12-08 17:37
Книголюб
Аватара пользователя
Стаж: 7 лет 2 месяца
Сообщений: 2823
Спасибок: 48828
Лайков: 73
Низкая стоимость
Low Cost
Изображение


Год выпуска: 2011
Страна: Франция
Жанр: комедия
Продолжительность: 01:29:13
Перевод: Профессиональный (одноголосый закадровый) + Профессиональный (одноголосый закадровый)

Режиссёр: Морис Бартелеми
В ролях: Жан-Поль Рув, Жюдит Годреш, Жерар Дармон, Этьен Шико, Максим Лефрансуа, Винсент Лакосте, Анн Бенуа
Описание: Очередной рутинный рейс авиалиний Лобуд Джет. Низкая стоимость билетов, никакого обслуживания, полный салон бедных туристов и коммивояжеров. В привычный ритм жизни вплетается разорение туроператора, который организовал рейс. И как водится, это было началом полного конца. Пираты, перестрелки, бешеные гонки на выживание — самая малость того, что ожидает бедных пассажиров…
Мировая премьера: 12 апреля 2011
Изображение 5.650 111

Качество: BDRip 1080p
Формат: MKV
Видео кодек: AVC
Аудио кодек: AC3 (Dolby Digital)
Видео: 9015 Кбит/с, 1920x816, 23.976 кадр/с 0.240Bits/Pixel
Аудио #1: Русский (AC3, 6 ch, 448 Кбит/с)
Аудио #2: французский (DTS, 6 ch, 1510 Кбит/с)


MediaInfo
General
Unique ID : 198007635144329714350566328736992769416 (0x94F6E224CF5F1042A5729BD34884B588)
Complete name : I:\Low.Cost.2011..mkv
Format : Matroska
File size : 6.84 GiB
Duration : 1h 29mn
Overall bit rate : 11.0 Mbps
Encoded date : UTC 2011-12-07 15:34:07
Writing application : mkvmerge v5.1.0 ('And so it goes') built on Nov 28 2011 23:58:28
Writing library : libebml v1.2.3 + libmatroska v1.3.0

Video
ID : 1
Format : AVC
Format/Info : Advanced Video Codec
Format profile : High@L4.1
Format settings, CABAC : Yes
Format settings, ReFrames : 4 frames
Codec ID : V_MPEG4/ISO/AVC
Duration : 1h 29mn
Bit rate : 9 015 Kbps
Width : 1 920 pixels
Height : 816 pixels
Display aspect ratio : 2.35:1
Frame rate : 23.976 fps
Color space : YUV
Chroma subsampling : 4:2:0
Bit depth : 8 bits
Scan type : Progressive
Bits/(Pixel*Frame) : 0.240
Stream size : 5.48 GiB (80%)
Writing library : x264 core 118 r2085 8a62835
Encoding settings : cabac=1 / ref=4 / deblock=1:-3:-3 / analyse=0x3:0x133 / me=umh / subme=10 / psy=1 / psy_rd=1.00:0.00 / mixed_ref=1 / me_range=48 / chroma_me=1 / trellis=2 / 8x8dct=1 / cqm=0 / deadzone=21,11 / fast_pskip=0 / chroma_qp_offset=-2 / threads=12 / sliced_threads=0 / nr=0 / decimate=0 / interlaced=0 / bluray_compat=0 / constrained_intra=0 / bframes=8 / b_pyramid=2 / b_adapt=2 / b_bias=0 / direct=3 / weightb=1 / open_gop=0 / weightp=2 / keyint=250 / keyint_min=23 / scenecut=40 / intra_refresh=0 / rc_lookahead=50 / rc=2pass / mbtree=1 / bitrate=9015 / ratetol=1.0 / qcomp=0.70 / qpmin=0 / qpmax=69 / qpstep=4 / cplxblur=20.0 / qblur=0.5 / ip_ratio=1.40 / aq=2:0.80
Language : English

Audio #1
ID : 2
Format : AC-3
Format/Info : Audio Coding 3
Mode extension : CM (complete main)
Codec ID : A_AC3
Duration : 1h 29mn
Bit rate mode : Constant
Bit rate : 448 Kbps
Channel(s) : 6 channels
Channel positions : Front: L C R, Side: L R, LFE
Sampling rate : 48.0 KHz
Bit depth : 16 bits
Compression mode : Lossy
Stream size : 286 MiB (4%)
Title : [VO - DDok] AC3, 6 ch, 448 Кбит/с
Language : Russian

Audio #2
ID : 3
Format : DTS
Format/Info : Digital Theater Systems
Codec ID : A_DTS
Duration : 1h 29mn
Bit rate mode : Constant
Bit rate : 1 510 Kbps
Channel(s) : 6 channels
Channel positions : Front: L C R, Side: L R, LFE
Sampling rate : 48.0 KHz
Bit depth : 16 bits
Compression mode : Lossy
Stream size : 964 MiB (14%)
Title : [Original] DTS, 6 ch, 1510 Кбит/с
Language : French

Text
ID : 4
Format : UTF-8
Codec ID : S_TEXT/UTF8
Codec ID/Info : UTF-8 Plain Text
Language : English


Свернуть


Скриншоты
Изображение
Изображение
Изображение
Изображение
Свернуть


Последний раз редактировалось coldun 2012-01-01 15:06, всего редактировалось 2 раз(а).
Не в сети
Профиль  
 Добавлено: 2011-12-10 23:43 (спустя 2 дня 6 часов)
Стаж: 8 лет
Сообщений: 27
Спасибок: 26
Лайков: 1
Как только увидел у французского фильма рейтинг 8.032 сразу решил проверить его.
Ну не может их тупой юмор набрать такой рейтинг. Он - 5.471
Не в сети
Профиль  
 Добавлено: 2013-04-30 19:43 (спустя 1 год 4 месяца)
Стаж: 4 года
Возраст: 29
Сообщений: 120
судя по комменту, смотреть не стоит...
Не в сети
Профиль  
 Добавлено: 2013-07-21 19:27 (спустя 2 месяца 20 дней)
Стаж: 6 лет 9 месяцев
Сообщений: 33
Спасибок: 3
Хороший фильм. Можно поржать.
Не в сети
Профиль  
Начать новую темуОтветить на тему  [ Сообщений: 4 ] 
Вы не можете начинать темы
Вы не можете отвечать на сообщения
Вы не можете редактировать свои сообщения
Вы не можете удалять свои сообщения