Правила форума

  • В этом разделе создание новых тем Запрещено.
  • Для создания новых тем пользуйтесь Корневым разделом DVD и HD фильмы.
Начать новую темуОтветить на тему  [ 1 сообщение ] 
Торрент файл
Размер: 8.99 GB • Зарегистрирован: 2 года 3 месяца • Статус: T Временный релиз
Скачан: 76 раз • Желающих скачать: 0 • Поблагодарили: 16 раз
 Раздают: 0  |  0 KB/s  ]   Качают: 0  |  0 KB/s  ] 
 Полного источника не было 5 часов 
Сообщения
 Добавлено: 2014-08-14 20:15
Руководитель релиз-группы
Аватара пользователя
Стаж: 7 лет 2 месяца
Возраст: 4
Сообщений: 5213
Спасибок: 19351
Лайков: 2312
Ночь отдыха для мам / Moms' Night Out

Изображение


Год выпуска: 2014
Страна: США, Pure Flix Entertainment
Жанр: Комедия
Продолжительность: 01:39:01
Перевод: Профессиональный (дубляж)

Режиссёр: Эндрю Эрвин, Эрвин Бразерс
В ролях: Сара Дрю, Шон Эстин, Патриция Хитон, Трэйси Д. Эдкинс, Дэвид Хант, Логан Уайт, Гарри Шам мл., Эбби Кобб, Роберт Амайа, Кевин Даунс
Описание: Сюжет рассказывает о том, что бывает, когда мамы решают потусоваться ночью, оставив детей и мужей без присмотра. Три закадычные подруги, которые с утра до вечера исполняют обязанности мам, жен, домработниц и так далее, решают устроить себе выходной. Красивое платье, высокие каблуки, вечерний макияж – и вот уже Эллисон и ее подруги готовы начать вечер в шикарном ресторане. По плану после великолепного ужина они отправятся в бар выпить по коктейлю. Однако вскоре выясняется, что муж одной из девушек потерял их ребенка. Конечно, трое подруг немедленно отправляются на поиски, думая, что это досадное недоразумение можно разрешить общими усилиями в самые кратчайшие сроки. Но они еще не знают, что это только начало их длинной-длинной ночи… Во что в конечном итоге превратится «Ночь отдыха для мам»


Качество: BDRip (1080p)
Формат: MKV
Видео: MPEG-4 AVC, 10600 Кбит/с, 1920x804
Аудио #1: Русский (AC3, 6 ch, 384 Кбит/с), английский (DTS, 6 ch, 1509 Кбит/с) [Профессиональный (дубляж)]
Скриншоты
Изображение
Изображение
Изображение
Свернуть


MI
Формат: Matroska
Версия формата: Version 4 / Version 2
Размер файла: 8.99 GiB
Продолжительность: 1ч 39 млн
Общий поток: 13,0 Мбит
Encoded Дата: UTC 2014-08-14 13:09:52
Написание приложений: MKVMerge v6.9.1 ('Голубой Пантера') 64bit построен на 18 апреля 2014 18:23:38
Дать библиотека: libebml v1.3.0 + libmatroska v1.4.1

Видео
ID: 1
Формат: AVC
Формат / Информация: Advanced Video Codec
Профайл формата: High@L4.1
Настройки формата, CABAC: Да
Настройки формата, меняет взгляды: 5 кадров
Идентификатор кодека: V_MPEG4 / ISO / AVC
Продолжительность: 1ч 39 млн
Скорость передачи данных: 10,5 Мбит
Ширина: 1 920 пикселей
Высота: 804 пикселей
Соотношение сторон дисплея: 2,40: 1
Режим Частота кадров: Постоянный
Частота кадров: 23,976 кадров в секунду
Цветовое пространство: YUV
Chroma субдискретизация: 4: 2: 0
Разрядность: 8 бит
Тип сканирования: Прогрессивная
Бит / (Пиксели * Кадры): 0.283
Размер потока: 7,24 Гигабайт (80%)
Дать библиотека: x264 ядро ​​142 r2453kMod ea0ca51
Настройки кодирования: CABAC = 1 / исх = 5 / Деблокирующий = 1: -3: -3 / анализа = 0x3: 0x133 / я = UMH / subme = 10 / пси = 1 / fade_compensate = 0.00 / psy_rd = 1,00: 0,00 / mixed_ref = 1 / me_range = 24 / chroma_me = 1 / шпалеры = 2 / 8x8dct = 1 / НКИ = 0 / мертвая зона = 21,11 / fast_pskip = 0 / chroma_qp_offset = -2 / темы = 12 / lookahead_threads = 3 / sliced_threads = 0 / NR = 0 / Decimate = 0 / чересстрочной = 0 / bluray_compat = 0 / constrained_intra = 0 / FGO = 0 / bframes = 10 / b_pyramid = 2 / b_adapt = 2 / b_bias = 0 / направить = 3 / weightb = 1 / open_gop = 0 / weightp = 2 / keyint = 250 / keyint_min = 23 / scenecut = 40 / intra_refresh = 0 / RC = CRF / mbtree = 0 / CRF = 17,1000 / qcomp = 0,75 / qpmin = 0 / qpmax = 69 / qpstep = 4 / ip_ratio = 1,30 / pb_ratio = 1,20 / водный = 1: 0,90
Язык: Английский
По умолчанию: Да
Принудительный: Нет

Аудио # 1
ID: 2
Формат: AC-3
Формат / Информация: Audio Coding 3
Расширение режима: CM (завершить основной)
Настройки формата, Порядок байтов: Большой
Идентификатор кодека: A_AC3
Продолжительность: 1ч 39 млн
Вид битрейта: Постоянный
Скорость передачи данных: 384 Kbps
Канал (ы): 6 каналов
Положение каналов: Front: LCR, Side: LR, LFE
Частота дискретизации: 48.0 KHz
Разрядность: 16 бит
Режим сжатия: С потерями
Размер потока: 272 Мб (3%)
Название: AC3 5.1 @ 384 кбит - МВО, музыкальные
Язык: Русский
По умолчанию: Да
Принудительный: Нет

Аудио # 2
ID: 3
Формат: DTS
Формат / Информация: Digital Theater Systems,
Режим: 16
Настройки формата, Порядок байтов: Большой
Идентификатор кодека: A_DTS
Продолжительность: 1ч 39 млн
Вид битрейта: Постоянный
Скорость передачи данных: 1 509 Kbps
Канал (ы): 6 каналов
Положение каналов: Front: LCR, Side: LR, LFE
Частота дискретизации: 48.0 KHz
Разрядность: 24 бита
Режим сжатия: С потерями
Размер потока: 1,04 Гигабайт (12%)
Язык: Английский
По умолчанию: Нет
Принудительный: Нет

Аудио # 3
ID: 6
Формат: AC-3
Формат / Информация: Audio Coding 3
Расширение режима: CM (завершить основной)
Настройки формата, Порядок байтов: Большой
Идентификатор кодека: A_AC3
Продолжительность: 1ч 39 млн
Вид битрейта: Постоянный
Скорость передачи данных: 384 Kbps
Канал (ы): 6 каналов
Положение каналов: Front: LCR, Side: LR, LFE
Частота дискретизации: 48.0 KHz
Разрядность: 16 бит
Режим сжатия: С потерями
Размер потока: 272 Мб (3%)
Язык: Русский
По умолчанию: Нет
Принудительный: Нет

Текст # 1
ID: 4
Формат: UTF-8
Идентификатор кодека: S_TEXT / UTF8
Идентификатор кодека / Информация: UTF-8 Plain Text
Название: Принудительное
Язык: Русский
По умолчанию: Да
Принудительный: Нет

Текст # 2
ID: 5
Формат: UTF-8
Идентификатор кодека: S_TEXT / UTF8
Идентификатор кодека / Информация: UTF-8 Plain Text
Язык: Английский
По умолчанию: Нет
Принудительный: Нет

Меню
00: 00: 00.000: ан: 00: 00: 00.000
00: 04: 45.285: ан: 00: 04: 45,285
00: 10: 02,143: ан: 00: 10: 02,143
00: 13: 30,935: ан: 00: 13: 30,935
00: 19: 15.112: ан: 00: 19: 15,112
00: 25: 26,191: ан: 00: 25: 26,191
00: 30: 14.146: ан: 00: 30: 14.146
00: 33: 56,743: ан: 00: 33: 56,743
00: 38: 20,548: ан: 00: 38: 20,548
00: 43: 50,962: ан: 00: 43: 50,962
00: 52: 22,556: ан: 00: 52: 22,556
01: 01: 30,395: ан: 01: 01: 30,395
01: 07: 36,010: ан: 01: 07: 36,010
01: 12: 32.890: ан: 01: 12: 32,890
01: 20: 02,172: ан: 01: 20: 02,172
01: 26: 47,119: ан: 01: 26: 47,119
Свернуть
Не в сети
Профиль  
Начать новую темуОтветить на тему  [ 1 сообщение ] 
Вы не можете начинать темы
Вы не можете отвечать на сообщения
Вы не можете редактировать свои сообщения
Вы не можете удалять свои сообщения
cron