Правила форума

  • В этом разделе создание новых тем Запрещено.
  • Для создания новых тем пользуйтесь Корневым разделом DVD и HD фильмы.
Начать новую темуОтветить на тему  [ 1 сообщение ] 
Торрент файл
Размер: 4.49 GB • Зарегистрирован: 3 года 2 месяца • Статус: T Временный релиз
Скачан: 29 раз • Желающих скачать: 0 • Поблагодарили: 9 раз
 Раздают: 0  |  0 KB/s  ]   Качают: 0  |  0 KB/s  ] 
 Полного источника не было 1 год 8 месяцев 
Сообщения
 Добавлено: 2013-10-01 09:49
Модератор
Аватара пользователя
Стаж: 6 лет 10 месяцев
Возраст: 33
Сообщений: 5908
Спасибок: 61259
Лайков: 3540
Изображение

Ночь страха 2
Fright Night 2


Год выпуска: 2013
Страна: США
Жанр: ужасы, комедия

Продолжительность: 01:39:41
Перевод: Любительский (одноголосый) [Xixidok]
Режиссер: Эдуардо Родригез
Сценарий: Мэтт Венн
Продюсер: Майкл Дж. Гаета, Элисон Р. Розензвеиг, Эми Крелл
Оператор: Ярон Леви
Композитор: Луис Асканио
В ролях: Уилл Пэйн, Джейми Мюррэй, Шон Пауэр, Саша Паркинсон, Крис Уоллер, Джон-Кристиан Бейтман, Лиана Маргиняну, Алина Минзу, Ади Хостиук, Джоэль Коутинью, Ada Gales, Константин Барбулеску

Мировая премьера: 1 октября 2013
Релиз на DVD: 31 октября 2013,«Двадцатый Век Фокс СНГ»,...
Релиз на Blu-ray: 31 октября 2013,«Двадцатый Век Фокс СНГ»,...
Описание: Молодые студенты колледжа внезапно узнают страшную правду о своем новом профессоре. Оказывается, их профессор - красивая молодая женщина Джерри Дэндридж - настоящая вампирша! Пытаясь донести это до остальных, ребята, сами того не желая, подписали себе смертный приговор. Потому что Джерри совершенно не хочет, чтобы ее тайна стала достоянием общественности...

MPAA: R - Лицам до 17 лет обязательно присутствие взрослого
Раздача группы: Изображение

Качество: BDRip, 720p
Формат: MKV
Видео: AVC; 1280x720 (16:9); 4615 Kbps; 23,976 fps; 0,209 bit/pixel
Аудио №1: русский; MP3; 192 Kbps; CBR; 2 ch
Аудио №2: DTS; 1510 Kbps; CBR; 6 ch; 24 bit

mediainfo
Format : Matroska
Format version : Version 4 / Version 2
File size : 4.49 GiB
Duration : 1h 39mn
Overall bit rate : 6 445 Kbps
Encoded date : UTC 2013-09-29 06:42:55
Writing application : mkvmerge v6.1.0 ('Old Devil') built on Mar 4 2013 09:10:42
Writing library : libebml v1.3.0 + libmatroska v1.4.0

Video
ID : 1
Format : AVC
Format/Info : Advanced Video Codec
Format profile : High@L4.1
Format settings, CABAC : Yes
Format settings, ReFrames : 5 frames
Codec ID : V_MPEG4/ISO/AVC
Duration : 1h 39mn
Bit rate : 4 763 Kbps
Width : 1 280 pixels
Height : 720 pixels
Display aspect ratio : 16:9
Frame rate : 23.976 fps
Color space : YUV
Chroma subsampling : 4:2:0
Bit depth : 8 bits
Scan type : Progressive
Bits/(Pixel*Frame) : 0.216
Stream size : 3.21 GiB (72%)
Writing library : x264 core 135 r2345 f0c1c53
Encoding settings : cabac=1 / ref=5 / deblock=1:0:0 / analyse=0x3:0x133 / me=umh / subme=7 / psy=1 / psy_rd=1.00:0.00 / mixed_ref=1 / me_range=16 / chroma_me=1 / trellis=1 / 8x8dct=1 / cqm=0 / deadzone=21,11 / fast_pskip=0 / chroma_qp_offset=-2 / threads=24 / lookahead_threads=4 / sliced_threads=0 / nr=0 / decimate=1 / interlaced=0 / bluray_compat=0 / constrained_intra=0 / bframes=3 / b_pyramid=2 / b_adapt=1 / b_bias=0 / direct=1 / weightb=1 / open_gop=0 / weightp=2 / keyint=250 / keyint_min=23 / scenecut=40 / intra_refresh=0 / rc_lookahead=40 / rc=2pass / mbtree=1 / bitrate=4763 / ratetol=1.0 / qcomp=0.60 / qpmin=0 / qpmax=69 / qpstep=4 / cplxblur=20.0 / qblur=0.5 / ip_ratio=1.40 / aq=1:1.00
Language : English
Default : Yes
Forced : No

Audio #1
ID : 2
Format : MPEG Audio
Format version : Version 1
Format profile : Layer 3
Mode : Joint stereo
Mode extension : MS Stereo
Codec ID : A_MPEG/L3
Codec ID/Hint : MP3
Duration : 1h 39mn
Bit rate mode : Constant
Bit rate : 192 Kbps
Channel(s) : 2 channels
Sampling rate : 48.0 KHz
Compression mode : Lossy
Stream size : 137 MiB (3%)
Language : Russian
Default : Yes
Forced : No

Audio #2
ID : 3
Format : DTS
Format/Info : Digital Theater Systems
Codec ID : A_DTS
Duration : 1h 39mn
Bit rate mode : Constant
Bit rate : 1 510 Kbps
Channel(s) : 6 channels
Channel positions : Front: L C R, Side: L R, LFE
Sampling rate : 48.0 KHz
Bit depth : 24 bits
Compression mode : Lossy
Stream size : 1.05 GiB (23%)
Title : DTS
Language : English
Default : No
Forced : No

Menu
00:00:00.000 : en:00:00:00.000
00:04:26.266 : en:00:04:26.266
00:07:53.973 : en:00:07:53.973
00:12:35.713 : en:00:12:35.713
00:14:43.549 : en:00:14:43.549
00:18:23.144 : en:00:18:23.144
00:24:15.329 : en:00:24:15.329
00:27:25.352 : en:00:27:25.352
00:32:58.810 : en:00:32:58.810
00:35:49.773 : en:00:35:49.773
00:39:04.384 : en:00:39:04.384
00:46:16.983 : en:00:46:16.983
00:50:34.406 : en:00:50:34.406
00:56:34.182 : en:00:56:34.182
01:03:10.286 : en:01:03:10.286
01:06:37.869 : en:01:06:37.869
01:10:28.599 : en:01:10:28.599
01:12:00.149 : en:01:12:00.149
01:14:49.944 : en:01:14:49.944
01:20:10.139 : en:01:20:10.139
01:25:10.480 : en:01:25:10.480
01:28:41.274 : en:01:28:41.274
01:33:22.388 : en:01:33:22.388
01:36:09.764 : en:01:36:09.764
Свернуть
"Знаете ли Вы, что..."
  • Сиквел был запущен в производство еще до выхода оригинального фильма, однако после провала ленты в прокате, работа над второй частью была приостановлена. Позже студией было принято решение снять фильм, однако вместо широкого/ограниченного проката проект встал в сетку «прямо-на-видео».
  • Съемки фильма проходили в Румынии в 2012 году.
  • Планировалось пригласить Антона Ельчина сняться в камео, однако из-за ограниченного бюджета от идеи отказались.
Свернуть
Скриншоты

Изображение

Изображение

Изображение

Изображение

Изображение

Изображение

Изображение

Изображение

Изображение

Изображение

Изображение

Изображение

Изображение

Свернуть
_________________
ИзображениеИзображение Изображение
Изображение
 tany1984 и di-ys1 нравится это.
Не в сети
Профиль  
Начать новую темуОтветить на тему  [ 1 сообщение ] 
Вы не можете начинать темы
Вы не можете отвечать на сообщения
Вы не можете редактировать свои сообщения
Вы не можете удалять свои сообщения