Правила форума

  • В этом разделе создание новых тем Запрещено.
  • Для создания новых тем пользуйтесь Корневым разделом DVD и HD фильмы.
Начать новую темуОтветить на тему  [ Сообщений: 2 ] 
Торрент файл
Размер: 6.18 GB • Зарегистрирован: 4 года 8 месяцев • Статус: Проверено
Скачан: 42 раза • Желающих скачать: 0 • Поблагодарили: 15 раз
 Раздают: 0  |  0 KB/s  ]   Качают: 0  |  0 KB/s  ] 
 Полного источника не было 2 года 3 месяца 
Сообщения
 Добавлено: 2012-03-08 16:39
Top-seeder
Аватара пользователя
Стаж: 9 лет
Сообщений: 1399
Спасибок: 28652
Лайков: 8
Ночь страха / Fright Night

Изображение

Перевод: Профессиональный (полное дублирование)
Субтитры: русские (форсированные), русские (полные), украинские (форсированные), украинские (полные), английские
Формат: BDRip, MKV, H.264, AC3
Страна: США
Режиссер: Крэйг Гиллеспи
Жанр: ужасы, триллер, комедия
Продолжительность: 01:45:58
Год выпуска: 2011

В ролях: Колин Фаррелл, Антон Ельчин, Тони Коллетт, Дэвид Теннант, Имоджен Путс, Кристофер Минц-Плассе, Дэйв Франко, Рейд Юинг, Уилл Дентон, Сандра Вергара и др.

Описание: Выпускник школы Чарли Брюстер находится на пике своей ученической карьеры: он популярен среди сверстников и встречается с самой очаровательной девушкой во всей школе. Он становится настолько крут, что начинает избегать своего когда-то лучшего друга Эда. Неприятности для Чарли начинаются, когда по соседству прописывается Джерри.
На первый взгляд он кажется хорошим парнем, но все же что-то с ним не так, хотя никто этого не замечает, даже мать Чарли. После анализа странного поведения соседа Чарли приходит к ужасному, но, увы, единственному верному заключению: под лживой маской Джерри скрывается кровожадный вампир, который сделал его район своими охотничьими угодьями.
Не в силах убедить кого бы то ни было в своей правоте, Чарли обращается за помощью и советом к популярному иллюзионисту из Лас-Вегаса Питеру Винсенту, рассчитывая, что кудесник поможет ему избавиться от монстра.


Видео: 1280x720p (16:9), 23.976 fps, AVC MPEG-4 (x264), High@L4.1 ~6 500 kbps avg, 0.294 bits/(pixel*frame)
Аудио#1: Русский: 48 kHz, AC3, 6 ch, ~640 kbps avg, [Профессиональный (полное дублирование)]
Аудио#2: Украинский: 48 kHz, AC3, 6 ch, ~640 kbps avg, [Профессиональный (полное дублирование)]
Аудио#3: Английский: 48 kHz, AC3, 6 ch, ~640 kbps avg, [Оригинал]

Слоган: «Сумерки кончились. Рассвет не скоро.»

MI
Общее
Уникальный идентификатор : 214474241985590706756464003309335751749 (0xA15A3C8ADE973515A36476336A202C45)
Полное имя : D:\Закачки\Ночь страха.mkv
Формат : Matroska
Размер файла : 6,18 Гбайт
Продолжительность : 1 ч. 45 м.
Общий поток : 8348 Кбит/сек
Название фильма : Fright Night (2011) - Released by Immortel
Дата кодирования : UTC 2012-03-07 11:36:48
Программа кодирования : mkvmerge v3.3.0 ('Language') built on Mar 24 2010 14:59:24
Библиотека кодирования : libebml v0.8.0 + libmatroska v0.9.0

Видео
Идентификатор : 1
Формат : AVC
Формат/Информация : Advanced Video Codec
Профиль формата : High@L4.1
Параметр CABAC формата : Да
Параметр ReFrames формата : 6 кадров
Параметры GOP формата : M=1, N=47
Идентификатор кодека : V_MPEG4/ISO/AVC
Продолжительность : 1 ч. 45 м.
Вид битрейта : Переменный
Битрейт : 6500 Кбит/сек
Максимальный битрейт : 24,0 Мбит/сек
Ширина : 1280 пикс.
Высота : 720 пикс.
Соотношение сторон : 16:9
Частота кадров : 23,976 кадр/сек
Цветовое пространство : YUV
Подвыборка цветности : 4:2:0
Битовая глубина : 8 бит
Тип развёртки : Прогрессивная
Бит/(Пиксели*Кадры) : 0.294
Размер потока : 4,64 Гбайт (75%)
Заголовок : Fright Night (2011) - Released by Immortel
Библиотека кодирования : x264 core 116
Настройки программы : cabac=1 / ref=6 / deblock=1:-1:-1 / analyse=0x3:0x113 / me=umh / subme=9 / psy=1 / psy_rd=1.00:0.00 / mixed_ref=1 / me_range=24 / chroma_me=1 / trellis=1 / 8x8dct=1 / cqm=0 / deadzone=21,11 / fast_pskip=0 / chroma_qp_offset=-2 / threads=6 / sliced_threads=0 / slices=4 / nr=0 / decimate=1 / interlaced=0 / bluray_compat=0 / constrained_intra=0 / bframes=3 / b_pyramid=0 / b_adapt=2 / b_bias=0 / direct=3 / weightb=1 / open_gop=0 / weightp=0 / keyint=48 / keyint_min=1 / scenecut=40 / intra_refresh=0 / rc_lookahead=48 / rc=abr / mbtree=1 / bitrate=6500 / ratetol=1000000000.0 / qcomp=0.75 / qpmin=3 / qpmax=69 / qpstep=4 / vbv_maxrate=24000 / vbv_bufsize=30000 / nal_hrd=vbr / ip_ratio=1.10 / aq=2:1.00
Основные цвета : BT.709-5, BT.1361, IEC 61966-2-4, SMPTE RP177
Характеристики трансфера : BT.709-5, BT.1361
Коэффициенты матрицы : BT.709-5, BT.1361, IEC 61966-2-4 709, SMPTE RP177

Аудио #1
Идентификатор : 2
Формат : AC-3
Формат/Информация : Audio Coding 3
Расширение режима : CM (complete main)
Идентификатор кодека : A_AC3
Продолжительность : 1 ч. 45 м.
Вид битрейта : Постоянный
Битрейт : 640 Кбит/сек
Каналы : 6 каналов
Расположение каналов : Front: L C R, Side: L R, LFE
Частота : 48,0 КГц
Битовая глубина : 16 бит
Метод сжатия : С потерями
Размер потока : 485 Мбайт (8%)
Заголовок : Dubbing
Язык : Russian

Аудио #2
Идентификатор : 3
Формат : AC-3
Формат/Информация : Audio Coding 3
Расширение режима : CM (complete main)
Идентификатор кодека : A_AC3
Продолжительность : 1 ч. 45 м.
Вид битрейта : Постоянный
Битрейт : 640 Кбит/сек
Каналы : 6 каналов
Расположение каналов : Front: L C R, Side: L R, LFE
Частота : 48,0 КГц
Битовая глубина : 16 бит
Метод сжатия : С потерями
Размер потока : 485 Мбайт (8%)
Заголовок : Dubbing
Язык : Ukrainian

Аудио #3
Идентификатор : 4
Формат : AC-3
Формат/Информация : Audio Coding 3
Расширение режима : CM (complete main)
Идентификатор кодека : A_AC3
Продолжительность : 1 ч. 45 м.
Вид битрейта : Постоянный
Битрейт : 640 Кбит/сек
Каналы : 6 каналов
Расположение каналов : Front: L C R, Side: L R, LFE
Частота : 48,0 КГц
Битовая глубина : 16 бит
Метод сжатия : С потерями
Размер потока : 485 Мбайт (8%)
Заголовок : Original
Язык : English

Текст #1
Идентификатор : 5
Формат : UTF-8
Идентификатор кодека : S_TEXT/UTF8
Идентификатор кодека/Информация : UTF-8 Plain Text
Заголовок : Forced
Язык : Russian

Текст #2
Идентификатор : 6
Формат : UTF-8
Идентификатор кодека : S_TEXT/UTF8
Идентификатор кодека/Информация : UTF-8 Plain Text
Язык : Russian

Текст #3
Идентификатор : 7
Формат : UTF-8
Идентификатор кодека : S_TEXT/UTF8
Идентификатор кодека/Информация : UTF-8 Plain Text
Заголовок : Forced
Язык : Ukrainian

Текст #4
Идентификатор : 8
Формат : UTF-8
Идентификатор кодека : S_TEXT/UTF8
Идентификатор кодека/Информация : UTF-8 Plain Text
Язык : Ukrainian

Текст #5
Идентификатор : 9
Формат : UTF-8
Идентификатор кодека : S_TEXT/UTF8
Идентификатор кодека/Информация : UTF-8 Plain Text
Язык : English

Меню
00:00:00.000 : en:00:00:00.000
00:03:18.824 : en:00:03:18.824
00:08:09.531 : en:00:08:09.531
00:13:27.682 : en:00:13:27.682
00:18:02.790 : en:00:18:02.790
00:22:20.130 : en:00:22:20.130
00:29:50.789 : en:00:29:50.789
00:33:50.862 : en:00:33:50.862
00:40:25.757 : en:00:40:25.757
00:45:05.202 : en:00:45:05.202
00:52:02.786 : en:00:52:02.786
00:58:06.358 : en:00:58:06.358
01:04:17.645 : en:01:04:17.645
01:09:29.624 : en:01:09:29.624
01:16:26.332 : en:01:16:26.332
01:19:17.670 : en:01:19:17.670
01:24:27.229 : en:01:24:27.229
01:30:26.796 : en:01:30:26.796
01:36:37.333 : en:01:36:37.333
01:38:21.395 : en:01:38:21.395

Свернуть

Скриншоты
ИзображениеИзображениеИзображениеИзображение
Свернуть
Не в сети
Профиль  
 Добавлено: 2012-03-17 17:38 (спустя 9 дней)
Аватара пользователя
Стаж: 6 лет 11 месяцев
Сообщений: 10
:-D
Не в сети
Профиль  
Начать новую темуОтветить на тему  [ Сообщений: 2 ] 
Вы не можете начинать темы
Вы не можете отвечать на сообщения
Вы не можете редактировать свои сообщения
Вы не можете удалять свои сообщения