Правила форума

  • В этом разделе создание новых тем Запрещено.
  • Для создания новых тем пользуйтесь Корневым разделом DVD и HD фильмы.
Начать новую темуОтветить на тему  [ Сообщений: 4 ] 
Торрент файл
Размер: 8.2 GB • Зарегистрирован: 5 лет • Статус: Проверено
Скачан: 203 раза • Желающих скачать: 0 • Поблагодарили: 39 раз
 Раздают: 0  |  0 KB/s  ]   Качают: 0  |  0 KB/s  ] 
 Полного источника не было 2 года 11 месяцев 
Сообщения
 Добавлено: 2011-12-06 15:38
Top-releaser
Аватара пользователя
Стаж: 7 лет 3 месяца
Возраст: 25
Сообщений: 1036
Спасибок: 2694
Лайков: 9
Ночь страха / Fright Night

«Сумерки кончились. Рассвет не скоро.»

Изображение



Год выхода: 2011
Страна: США, Индия

Жанр: ужасы, триллер, комедия
Продолжительность: 01:45:57
Перевод: Дублированный [лицензия]

Режиссер: Крэйг Гиллеспи
Сценарий: Марти Ноксон, Том Холланд
Продюсер: Майкл Де Лука, Элисон Р. Розензвеиг, Рэй Анджелик, ...
Оператор: Хавьер Агирресаробе
Композитор: Рамин Джавади

В ролях: Колин Фаррелл, Антон Ельчин, Тони Коллетт, Дэвид Теннант, Имоджен Путс, Кристофер Минц-Плассе, Дэйв Франко, Рейд Юинг, Уилл Дентон, Сандра Вергара и др

Описание: Выпускник школы Чарли Брюстер находится на пике своей ученической карьеры: он популярен среди сверстников и встречается с самой очаровательной девушкой во всей школе. Он становится настолько крут, что начинает избегать своего когда-то лучшего друга Эда. Неприятности для Чарли начинаются, когда по соседству прописывается Джерри.

Изображение

Pаздача группы:Изображение

Качество: BDRip 1080p
Формат: Mkv

Видео: MPEG4 Video (H264) 1920x1080 23.98fps 9 182 Kbps
Аудио 1:[Rus] Dolby AC3 48000Hz 6ch 384 Kbps
Аудио 2:[Eng] Dts 48000Hz 6ch 1 510 Kbps
Subtitle: Utf-8

Изображение

MediaInfo
General
Unique ID : 247029346445417902779735616648382150783 (0xB9D81F1DA63EDED988CDBB6D87BA787F)
Complete name : H:\Download\Noch.straha.DVD_RG(1080p).mkv
Format : Matroska
Format version : Version 2
File size : 8.20 GiB
Duration : 1h 45mn
Overall bit rate : 11.1 Mbps
Movie name : --SCHUMAHER--
Encoded date : UTC 2011-12-05 21:48:25
Writing application : mkvmerge v5.1.0 ('And so it goes') built on Nov 28 2011 23:58:28
Writing library : libebml v1.2.3 + libmatroska v1.3.0

Video
ID : 1
Format : AVC
Format/Info : Advanced Video Codec
Format profile : High@L4.1
Format settings, CABAC : Yes
Format settings, ReFrames : 4 frames
Codec ID : V_MPEG4/ISO/AVC
Duration : 1h 45mn
Bit rate : 9 182 Kbps
Width : 1 920 pixels
Height : 1 080 pixels
Display aspect ratio : 16:9
Frame rate : 23.976 fps
Color space : YUV
Chroma subsampling : 4:2:0
Bit depth : 8 bits
Scan type : Progressive
Bits/(Pixel*Frame) : 0.185
Stream size : 6.63 GiB (81%)
Writing library : x264 core 116 r2074 2641b9e
Encoding settings : cabac=1 / ref=4 / deblock=1:-3:-3 / analyse=0x3:0x113 / me=umh / subme=10 / psy=1 / psy_rd=1.05:0.10 / mixed_ref=1 / me_range=32 / chroma_me=1 / trellis=2 / 8x8dct=1 / cqm=0 / deadzone=21,11 / fast_pskip=0 / chroma_qp_offset=-2 / threads=8 / sliced_threads=0 / nr=0 / decimate=1 / interlaced=0 / bluray_compat=0 / constrained_intra=0 / bframes=6 / b_pyramid=2 / b_adapt=2 / b_bias=0 / direct=3 / weightb=1 / open_gop=0 / weightp=2 / keyint=250 / keyint_min=23 / scenecut=40 / intra_refresh=0 / rc=2pass / mbtree=0 / bitrate=9182 / ratetol=1.0 / qcomp=0.70 / qpmin=0 / qpmax=69 / qpstep=4 / cplxblur=20.0 / qblur=0.5 / ip_ratio=1.40 / pb_ratio=1.30 / aq=2:1.00
Language : English

Audio #1
ID : 2
Format : AC-3
Format/Info : Audio Coding 3
Mode extension : CM (complete main)
Codec ID : A_AC3
Duration : 1h 45mn
Bit rate mode : Constant
Bit rate : 384 Kbps
Channel(s) : 6 channels
Channel positions : Front: L C R, Side: L R, LFE
Sampling rate : 48.0 KHz
Bit depth : 16 bits
Compression mode : Lossy
Stream size : 291 MiB (3%)
Language : Russian

Audio #2
ID : 3
Format : DTS
Format/Info : Digital Theater Systems
Codec ID : A_DTS
Duration : 1h 45mn
Bit rate mode : Constant
Bit rate : 1 510 Kbps
Channel(s) : 6 channels
Channel positions : Front: L C R, Side: L R, LFE
Sampling rate : 48.0 KHz
Bit depth : 24 bits
Compression mode : Lossy
Stream size : 1.12 GiB (14%)
Language : English

Text #1
ID : 4
Format : UTF-8
Codec ID : S_TEXT/UTF8
Codec ID/Info : UTF-8 Plain Text
Language : Russian

Text #2
ID : 5
Format : UTF-8
Codec ID : S_TEXT/UTF8
Codec ID/Info : UTF-8 Plain Text
Language : English

Menu
00:00:00.000 : en:
00:03:18.822 : en:
00:08:09.530 : en:
00:13:27.681 : en:
00:18:02.790 : en:
00:22:20.130 : en:
00:29:50.788 : en:
00:33:50.862 : en:
00:40:25.756 : en:
00:45:05.202 : en:
00:52:02.786 : en:
00:58:06.357 : en:
01:04:17.645 : en:
01:09:29.622 : en:
01:16:26.331 : en:
01:19:17.669 : en:
01:24:27.228 : en:
01:30:26.796 : en:
01:36:37.332 : en:
01:38:21.395 : en:


Свернуть
Скриншоты
Изображение
Изображение
Изображение
Изображение
Изображение
Свернуть
Не в сети
Профиль  
 Добавлено: 2011-12-09 00:52 (спустя 2 дня 9 часов)
Аватара пользователя
Стаж: 7 лет 5 месяцев
Возраст: 29
Сообщений: 118
Спасибок: 3
Лайков: 2
:) Дубляж, это хорошо, наконец то :a_g_a:
Не в сети
Профиль  
 Добавлено: 2011-12-26 22:03 (спустя 17 дней)
Аватара пользователя
Стаж: 8 лет 11 месяцев
Возраст: 27
Сообщений: 721
Спасибок: 5528
Лайков: 1
Очень порадовал фильм, мне понравился :)
_________________
Изображение
Не в сети
Профиль  
 Добавлено: 2011-12-29 16:48 (спустя 2 дня 18 часов)
Аватара пользователя
Стаж: 7 лет 11 месяцев
Сообщений: 786
Спасибок: 25
Лайков: 9
Спасибо За Качество ;)
Не в сети
Профиль  
Начать новую темуОтветить на тему  [ Сообщений: 4 ] 
Вы не можете начинать темы
Вы не можете отвечать на сообщения
Вы не можете редактировать свои сообщения
Вы не можете удалять свои сообщения