Правила форума

  • В этом разделе создание новых тем Запрещено.
  • Для создания новых тем пользуйтесь Корневым разделом DVD и HD фильмы.
Начать новую темуОтветить на тему  [ Сообщений: 6 ] 
Торрент файл
Размер: 7.94 GB • Зарегистрирован: 5 лет • Статус: Проверено
Скачан: 104 раза • Желающих скачать: 0 • Поблагодарили: 24 раза
 Раздают: 0  |  0 KB/s  ]   Качают: 0  |  0 KB/s  ] 
 Полного источника не было 3 года 2 месяца 
Сообщения
 Добавлено: 2011-12-02 15:57
Модератор релиз-группы
Аватара пользователя
Стаж: 9 лет 1 месяц
Возраст: 97
Сообщений: 11660
Спасибок: 6533
Лайков: 269
Ночь страха / Fright Night

Изображение



Год выпуска: 2011
Жанр: Ужасы, триллер, комедия
Страна: США, Великобритания, Albuquerque Studios, DreamWorks SKG
Продолжительность: 01:45:58
Перевод: Любительский одноголосый (zamez)
Субтитры: Английские

Режиссер: Крэйг Гиллеспи

В ролях: Колин Фаррелл, Антон Ельчин, Тони Коллетт, Дэвид Теннант, Имоджен Путс, Кристофер Минц-Плассе, Дэйв Франко, Рейд Юинг, Уилл Дентон, Сандра Вергара

Описание : Выпускник школы Чарли Брюстер находится на пике своей ученической карьеры: он популярен среди сверстников и встречается с самой очаровательной девушкой во всей школе. Он становится настолько крут, что начинает избегать своего когда-то лучшего друга Эда. Неприятности для Чарли начинаются, когда по соседству прописывается Джерри.
Изображение
Качество: BDRip (1080p)
Формат: MKV
Видео: MPEG-4 AVC, 8828 Кбит/с, 1920x1080
Аудио: Русский (AC3, 6 ch, 384 Кбит/с), английский (DTS, 6 ch, 1510 Кбит/с)

скриншоты
Изображение

Изображение

Изображение
Свернуть
Mi
Format : Matroska
Format version : Version 2
File size : 7.94 GiB
Duration : 1h 45mn
Overall bit rate : 10.7 Mbps
Encoded date : UTC 2011-11-30 07:30:49
Writing application : mkvmerge v3.2.0 ('Beginnings') built on Feb 12 2010 16:46:17
Writing library : libebml v0.7.9 + libmatroska v0.8.1

Video
ID : 1
Format : AVC
Format/Info : Advanced Video Codec
Format profile : High@L4.1
Format settings, CABAC : Yes
Format settings, ReFrames : 4 frames
Codec ID : V_MPEG4/ISO/AVC
Duration : 1h 45mn
Bit rate : 8 828 Kbps
Width : 1 920 pixels
Height : 1 080 pixels
Display aspect ratio : 16:9
Frame rate : 23.976 fps
Color space : YUV
Chroma subsampling : 4:2:0
Bit depth : 8 bits
Scan type : Progressive
Bits/(Pixel*Frame) : 0.178
Stream size : 6.38 GiB (80%)
Writing library : x264 core 119 r2106 07efeb4
Encoding settings : cabac=1 / ref=4 / deblock=1:0:0 / analyse=0x3:0x113 / me=umh / subme=8 / psy=1 / psy_rd=1.00:0.00 / mixed_ref=1 / me_range=16 / chroma_me=1 / trellis=1 / 8x8dct=1 / cqm=0 / deadzone=21,11 / fast_pskip=1 / chroma_qp_offset=-2 / threads=12 / sliced_threads=0 / nr=0 / decimate=1 / interlaced=0 / bluray_compat=0 / constrained_intra=0 / bframes=3 / b_pyramid=2 / b_adapt=2 / b_bias=0 / direct=3 / weightb=1 / open_gop=0 / weightp=2 / keyint=240 / keyint_min=24 / scenecut=40 / intra_refresh=0 / rc_lookahead=50 / rc=2pass / mbtree=1 / bitrate=8828 / ratetol=1.0 / qcomp=0.60 / qpmin=0 / qpmax=69 / qpstep=4 / cplxblur=20.0 / qblur=0.5 / ip_ratio=1.40 / aq=1:1.00
Language : English

Audio #1
ID : 2
Format : AC-3
Format/Info : Audio Coding 3
Mode extension : CM (complete main)
Codec ID : A_AC3
Duration : 1h 45mn
Bit rate mode : Constant
Bit rate : 384 Kbps
Channel(s) : 6 channels
Channel positions : Front: L C R, Side: L R, LFE
Sampling rate : 48.0 KHz
Bit depth : 16 bits
Compression mode : Lossy
Stream size : 291 MiB (4%)
Language : Russian

Audio #2
ID : 3
Format : DTS
Format/Info : Digital Theater Systems
Codec ID : A_DTS
Duration : 1h 45mn
Bit rate mode : Constant
Bit rate : 1 510 Kbps
Channel(s) : 6 channels
Channel positions : Front: L C R, Side: L R, LFE
Sampling rate : 48.0 KHz
Bit depth : 24 bits
Compression mode : Lossy
Delay relative to video : 11ms
Stream size : 1.12 GiB (14%)
Language : English

Text
ID : 4
Format : UTF-8
Codec ID : S_TEXT/UTF8
Codec ID/Info : UTF-8 Plain Text
Language : English

Menu
00:00:00.000 : en:00:00:00.000
00:03:18.824 : en:00:03:18.824
00:08:09.531 : en:00:08:09.531
00:13:27.682 : en:00:13:27.682
00:18:02.790 : en:00:18:02.790
00:22:20.130 : en:00:22:20.130
00:29:50.789 : en:00:29:50.789
00:33:50.862 : en:00:33:50.862
00:40:25.757 : en:00:40:25.757
00:45:05.202 : en:00:45:05.202
00:52:02.786 : en:00:52:02.786
00:58:06.358 : en:00:58:06.358
01:04:17.645 : en:01:04:17.645
01:09:29.624 : en:01:09:29.624
01:16:26.332 : en:01:16:26.332
01:19:17.670 : en:01:19:17.670
01:24:27.229 : en:01:24:27.229
01:30:26.796 : en:01:30:26.796
01:36:37.333 : en:01:36:37.333
01:38:21.395 : en:01:38:21.395

Свернуть
_________________
Изображение
Не в сети
Профиль  
 Добавлено: 2011-12-02 18:41 (спустя 2 часа 43 минуты)
Аватара пользователя
Стаж: 8 лет 3 месяца
Возраст: 43
Сообщений: 3290
Спасибок: 21012
Лайков: 3
Замез - можно уже называть авторским, статус проверено
_________________
Изображение
Не в сети
Профиль  
 Добавлено: 2011-12-02 22:03 (спустя 3 часа)
Стаж: 5 лет 3 месяца
Сообщений: 150
Лайков: 2
Фильм убойный)))
Не в сети
Профиль  
 Добавлено: 2011-12-03 21:36 (спустя 23 часа)
Аватара пользователя
Стаж: 7 лет 5 месяцев
Возраст: 29
Сообщений: 118
Спасибок: 3
Лайков: 2
УРААААА!!! Фильм ваще кипяток, спс!!! :bra_vo:
Не в сети
Профиль  
 Добавлено: 2011-12-04 18:47 (спустя 21 час)
Аватара пользователя
Стаж: 6 лет 9 месяцев
Сообщений: 922
фильм стоящий. и главное в классике жанра. подумал что сценарий писал Кинг либо человек знакомый с его творчеством...
PS. фэны сумерек могут идти лесом.
Не в сети
Профиль  
 Добавлено: 2012-03-19 15:20 (спустя 3 месяца 14 дней)
Аватара пользователя
Стаж: 8 лет 11 месяцев
Сообщений: 517
Спасибок: 39
Лайков: 49
А скорость ну прям просто зашкаливает, аж целых 56 кб/секунду! Этоже как нужно было напрячь свой трафик чтобы её добиться. Вру, уже упала до 39. Ничё пацаны, держитесь, удачи вам в раздаче. Чтобы в течении месяца, ну на крайняк полугода уже появились первые счастливчики скачавшие сию тематику.
Не в сети
Профиль  
Начать новую темуОтветить на тему  [ Сообщений: 6 ] 
Вы не можете начинать темы
Вы не можете отвечать на сообщения
Вы не можете редактировать свои сообщения
Вы не можете удалять свои сообщения