Правила форума

  • В этом разделе создание новых тем Запрещено.
  • Для создания новых тем пользуйтесь Корневым разделом DVD и HD фильмы.
Начать новую темуОтветить на тему  [ Сообщений: 5 ] 
Торрент файл
Размер: 10.66 GB • Зарегистрирован: 1 год 9 месяцев • Статус: Проверено
Скачан: 547 раз • Желающих скачать: 0 • Поблагодарили: 88 раз
 Раздают: 0  |  0 KB/s  ]   Качают: 0  |  0 KB/s  ] 
 Полного источника не было 1 день 10 часов 
Сообщения
 Добавлено: 2015-02-26 17:56
DVD Release Group
Аватара пользователя
Стаж: 7 лет 1 месяц
Сообщений: 3541
Спасибок: 246635
Лайков: 1016
Ночь в музее: Секрет гробницы

Night at the Museum: Secret of the Tomb


Изображение


Год выпуска: 2014
Страна: США
Жанр: Фэнтези, комедия, приключения, семейный
Продолжительность: 01:37:49
Перевод: Профессиональный (полное дублирование)
Субтитры: Английские, румынские
Режиссер: Шон Леви
В ролях: Бен Стиллер, Робин Уильямс, Оуэн Уилсон, Стив Куган, Рики Джервэйс, Дэн Стивенс, Ребел Уилсон, Скайлер Джизондо, Рами Малек, Патрик Галлахер
Описание: Ночной сторож Музея естественной истории в Нью-Йорке Ларри Дэйли в отчаянии: его друзья-экспонаты начинают странно себя вести, а всё потому, что оживляющая их древнеегипетская золотая пластина разрушается. Только отец фараона Ахкменра знает тайну магического артефакта, но вот беда — его мумия далеко, она выставлена в Британском музее естествознания! Команда любимых героев предпринимает беспрецедентное путешествие в Лондон. Они должны объединиться с британскими экспонатами и рискнуть всем, чтобы восстановить золотую пластину до того, как Ларри потеряет своих друзей навсегда.
Изображение
Качество: BDRip 1080p
Формат: MKV
Видео кодек: H.264
Аудио кодек: AC3, DTS
Видео: 1920x1040 23.98fps 13300Кбит/с
Аудио:
Аудио Rus: AC3 48kHz 6ch 384kbps
Аудио Eng: DTS 48kHz 6ch 1510kbps
"MediaInfo"
Формат : Matroska
Версия формата : Version 4 / Version 2
Размер файла : 10,7 Гбайт
Продолжительность : 1 ч. 37 м.
Общий поток : 15,6 Мбит/сек
Название фильма : Night.at.the.Museum.Secret.of.the.Tomb.2014..1080p.BluRay.DTS-ES.x264-VietHD
Дата кодирования : UTC 2015-03-02 19:25:50
Программа кодирования : mkvmerge v6.5.0 ('Isn't she lovely') built on Oct 20 2013 12:50:05
Библиотека кодирования : libebml v1.3.0 + libmatroska v1.4.1

Видео
Идентификатор : 1
Формат : AVC
Формат/Информация : Advanced Video Codec
Профиль формата : High@L4.1
Параметр CABAC формата : Да
Параметр ReFrames формата : 4 кадра
Идентификатор кодека : V_MPEG4/ISO/AVC
Ширина : 1920 пикселей
Высота : 1040 пикселей
Соотношение сторон : 1,85:1
Режим частоты кадров : Переменный
Частота кадров в оригинале : 23,976 кадра/сек
Цветовое пространство : YUV
Субдискретизация насыщенности : 4:2:0
Битовая глубина : 8 бит
Тип развёртки : Прогрессивная
Библиотека кодирования : x264 core 144 r0+2574 9abcd72 t_mod_Custom [8-bit@all X86_64]
Настройки программы : cabac=1 / ref=4 / deblock=1:-3:-3 / analyse=0x3:0x133 / me=umh / subme=10 / psy=1 / fade_compensate=0.00 / psy_rd=1.00:0.00 / mixed_ref=1 / me_range=24 / chroma_me=1 / trellis=2 / 8x8dct=1 / cqm=0 / deadzone=21,11 / fast_pskip=1 / chroma_qp_offset=-2 / threads=12 / lookahead_threads=2 / sliced_threads=0 / nr=0 / decimate=1 / interlaced=0 / bluray_compat=0 / constrained_intra=0 / fgo=0 / bframes=7 / b_pyramid=2 / b_adapt=2 / b_bias=0 / direct=3 / weightb=1 / open_gop=0 / weightp=2 / keyint=250 / keyint_min=23 / scenecut=40 / intra_refresh=0 / rc=crf / mbtree=0 / crf=17.8000 / qcomp=0.65 / qpmin=0:0:0 / qpmax=69:69:69 / qpstep=4 / ip_ratio=1.30 / pb_ratio=1.20 / aq=4:0.85 / aq-sensitivity=10.00 / aq-factor=1.00:1.00:1.00 / aq2=0 / aq3=0
Язык : English
Default : Да
Forced : Нет
Коэффициенты матрицы : BT.709

Аудио #1
Идентификатор : 2
Формат : AC-3
Формат/Информация : Audio Coding 3
Расширение режима : CM (complete main)
Параметр Endianness формата : Big
Идентификатор кодека : A_AC3
Продолжительность : 1 ч. 37 м.
Вид битрейта : Постоянный
Битрейт : 384 Кбит/сек
Каналы : 6 каналов
Расположение каналов : Front: L C R, Side: L R, LFE
Частота : 48,0 КГц
Битовая глубина : 16 бит
Метод сжатия : С потерями
Размер потока : 269 Мбайт (2%)
Язык : Russian
Default : Да
Forced : Нет

Аудио #2
Идентификатор : 3
Формат : DTS
Формат/Информация : Digital Theater Systems
Профиль формата : ES
Режим : 16
Параметр Endianness формата : Big
Идентификатор кодека : A_DTS
Продолжительность : 1 ч. 37 м.
Вид битрейта : Постоянный
Битрейт : 1509 Кбит/сек
Каналы : 6 каналов
Расположение каналов : Front: L C R, Side: L R, LFE
Частота : 48,0 КГц
Битовая глубина : 24 бит
Метод сжатия : С потерями
Размер потока : 1,03 Гбайт (10%)
Язык : English
Default : Нет
Forced : Нет

Аудио #3
Идентификатор : 4
Формат : AAC
Формат/Информация : Advanced Audio Codec
Профиль формата : LC
Идентификатор кодека : A_AAC
Продолжительность : 1 ч. 37 м.
Каналы : 2 канала
Расположение каналов : Front: L R
Частота : 48,0 КГц
Метод сжатия : С потерями
Задержка видео : 20 мс.
Язык : English
Default : Нет
Forced : Нет

Текст #1
Идентификатор : 5
Формат : UTF-8
Идентификатор кодека : S_TEXT/UTF8
Идентификатор кодека/Информация : UTF-8 Plain Text
Язык : English
Default : Нет
Forced : Нет

Текст #2
Идентификатор : 6
Формат : UTF-8
Идентификатор кодека : S_TEXT/UTF8
Идентификатор кодека/Информация : UTF-8 Plain Text
Язык : English
Default : Нет
Forced : Нет

Текст #3
Идентификатор : 7
Формат : UTF-8
Идентификатор кодека : S_TEXT/UTF8
Идентификатор кодека/Информация : UTF-8 Plain Text
Язык : Romanian
Default : Нет
Forced : Нет

Меню
00:00:00.000 : en:00:00:00.000
00:04:34.441 : en:00:04:34.441
00:06:29.347 : en:00:06:29.347
00:09:10.884 : en:00:09:10.884
00:13:18.131 : en:00:13:18.131
00:14:43.132 : en:00:14:43.132
00:18:01.038 : en:00:18:01.038
00:19:58.906 : en:00:19:58.906
00:22:27.388 : en:00:22:27.388
00:24:47.611 : en:00:24:47.611
00:26:26.084 : en:00:26:26.084
00:29:11.583 : en:00:29:11.583
00:32:03.505 : en:00:32:03.505
00:35:50.815 : en:00:35:50.815
00:39:48.761 : en:00:39:48.761
00:44:14.735 : en:00:44:14.735
00:51:19.285 : en:00:51:19.285
00:52:38.530 : en:00:52:38.530
00:58:00.352 : en:00:58:00.352
01:01:09.624 : en:01:01:09.624
01:03:40.275 : en:01:03:40.275
01:06:44.334 : en:01:06:44.334
01:08:01.911 : en:01:08:01.911
01:11:09.640 : en:01:11:09.640
01:17:08.624 : en:01:17:08.624
01:21:45.317 : en:01:21:45.317
01:27:47.512 : en:01:27:47.512
01:31:28.274 : en:01:31:28.274
Свернуть

"Скриншоты"
Изображение
Изображение
Изображение
Свернуть


Последний раз редактировалось rastor 2015-03-03 05:06, всего редактировалось 2 раз(а).
В сети
Профиль  
 Добавлено: 2015-03-03 00:23 (спустя 4 дня)
Аватара пользователя
Стаж: 8 лет 3 месяца
Сообщений: 198
Лайков: 8
Хороший семейный фильм, после просмотра только позитивное настроение!
Не в сети
Профиль  
 Добавлено: 2015-03-03 09:26 (спустя 9 часов)
Стаж: 9 лет
Сообщений: 187
Спасибок: 77
Лайков: 1
Спасибо ! Давно ждал !! Первые две части понравились, заценим и эту !!!!
Не в сети
Профиль  
 Добавлено: 2015-03-03 15:07 (спустя 5 часов)
Стаж: 8 лет 10 месяцев
Сообщений: 38
Лайков: 2
Ну и ГовнООООООООО!!!!
Они там в своем голливуде совсем перестали с рассудком дружить!
Не в сети
Профиль  
 Добавлено: 2015-03-06 21:43 (спустя 3 дня)
Стаж: 5 лет 6 месяцев
Сообщений: 154
Лайков: 35
сценка с городом Помпеи и бюста улыбнула а в остальном ...
Не в сети
Профиль  
Начать новую темуОтветить на тему  [ Сообщений: 5 ] 
Вы не можете начинать темы
Вы не можете отвечать на сообщения
Вы не можете редактировать свои сообщения
Вы не можете удалять свои сообщения